<?xml version="1.0" standalone="no"?>
<!DOCTYPE svg PUBLIC "-//W3C//DTD SVG 1.1//EN" "http://www.w3.org/Graphics/SVG/1.1/DTD/svg11.dtd" >
<svg xmlns="http://www.w3.org/2000/svg">
<metadata>
This is a custom SVG font generated by IcoMoon.
<iconset grid="16"></iconset>
</metadata>
<defs>
<font id="yobicon" horiz-adv-x="512" >
<font-face units-per-em="512" ascent="480" descent="-32" />
<missing-glyph horiz-adv-x="512" />
<glyph class="hidden" unicode="&#xf000;" d="M0,480L 512 -32L0 -32 z" horiz-adv-x="0" />
<glyph unicode="&#xe000;" d="M 480,416l-32,0 l0-416 q0-13 -9.5-22.5t-22.75-9.5t-22.5,9.5t-9.25,22.5l0,416 l-128,0 l0-416 q0-13 -9.5-22.5t-22.75-9.5t-22.5,9.5t-9.25,22.5l0,160 l-32,0 q-43.5,0 -80.25,21.5t-58.25,58.25t-21.5,80.25t 21.5,80.25t 58.25,58.25t 80.25,21.5l 320,0 q 13,0 22.5-9.25t 9.5-22.5t-9.25-22.75t-22.75-9.5z"  />
<glyph unicode="&#xe001;" d="M 350.5,224l 151.5-152q 10-10 10-23.75t-10-23.25l-47-47q-9.5-10 -23.5-10t-23.5,10l-152,151.5l-152-151.5q-9.5-10 -23.5-10t-23.5,10l-47,47q-10,9.5 -10,23.25t 10,23.75l 151.5,152l-151.5,151.5q-10,10 -10,23.75t 10,23.75l 47,47q 9.5,9.5 23.5,9.5t 23.5-9.5l 152-152l 152,152q 9.5,9.5 23.5,9.5t 23.5-9.5
l 47-47q 10-10 10-23.75t-10-23.75z"  />
<glyph unicode="&#xe002;" d="M 480,160l-448,0 q-13.5,0 -22.75,9.5t-9.25,22.5l0,64 q0,13.5 9.5,22.75t 22.5,9.25l 448,0 q 13.5,0 22.75-9.25t 9.25-22.75l0-64 q0-13 -9.25-22.5t-22.75-9.5zM 288,352l-64,0 q-13.5,0 -22.75,9.5t-9.25,22.5l0,64 q0,13.5 9.5,22.75t 22.5,9.25l 64,0 q 13.5,0 22.75-9.25t 9.25-22.75l0-64 q0-13 -9.25-22.5t-22.75-9.5z
M 224,96l 64,0 q 13.5,0 22.75-9.25t 9.25-22.75l0-64 q0-13.5 -9.5-22.75t-22.5-9.25l-64,0 q-13.5,0 -22.75,9.5t-9.25,22.5l0,64 q0,13.5 9.5,22.75t 22.5,9.25z"  />
<glyph unicode="&#xe003;" d="M 384-32q-25.5,0 -50,10.5t-47.25,30.25t-40.5,39.75t-38.25,47.5q-8.5,11.5 -21,24.75t-32.5,30.75t-44,29t-46.5,11.5l-48,0 q-6.5,0 -11.25,4.75t-4.75,11.25t 4.75,11.25t 11.25,4.75l 48,0 q 18.5,0 27.75-0.25t 26.25-1.25t 27.25-3.5t 25-7t 25.5-11.25t 22.5-17t 21.75-23.75q 12.5-17 39.75-40.5t 40.25-23.5q 32,0 32,32l0,64 
q0,13 9.25,22.5t 22.75,9.5l 96,0 q 13,0 22.5-9.5t 9.5-22.5l0-96 q0-53 -37.5-90.5t-90.5-37.5zM 448,352q0-18 4.5-41.5q 0.5-2.5 9-20.25t 12.5-34.25l-29,0 q-4.5,21 -13,32q-11.5,12 -13.75,23.75t-2.25,40.25q0,40 18.75,68t 45.25,28q-19-7.5 -25.5-32t-6.5-64zM 352,377.5q0-19 4.5-44.5q 25-28 27-77l-31.5,0 
q0,32 -4.5,38q-27.5,31 -27.5,83.5q0,42.5 18.75,72.5t 45.25,30q 7.5,0 16-3.5q-21-9 -34.5-36.25t-13.5-62.75z"  />
<glyph unicode="&#xe004;" d="M 480,192q0-45.5 -17.75-87t-47.75-71.5t-71.5-47.75t-87-17.75t-87,17.75t-71.5,47.75t-47.75,71.5t-17.75,87q0,81.5 51.75,143.25t 130.25,76.75l-54,36l 64,32l 64,0 l 64-32l-54-36q 78.5-15 130.25-76.75t 51.75-143.25zM 256,352q-43.5,0 -80.25-21.5t-58.25-58.25t-21.5-80.25
t 21.5-80.25t 58.25-58.25t 80.25-21.5t 80.25,21.5t 58.25,58.25t 21.5,80.25t-21.5,80.25t-58.25,58.25t-80.25,21.5z"  />
<glyph unicode="&#xe005;" d="M 507-1.5l-25.5-25.5q-5-5 -12.25-5t-12.75,5l-164,164.5l-38.5-39q-3-2.5 -7-2.5t-6.5,2.5l-14,13.5q-2.5,3 -2.5,7t 2.5,7l 14.5,14.5l-113,99.5q-37.5,37.5 -80.5,114.75t-47.5,125.25q 5.5-6.5 13.5-14.5t 18.75-18.25t 15.75-15.25q 36.5-36.5 77-61.75t 49.5-16.25l 0.25,0.25t 0.25,0.75l 140.5-140.5l 6.5,7q 3,2.5 7,2.5
t 7-2.5l 13.5-14q 3-2.5 3-6.5t-3-7l-6.5-6.5l 164-164q 5-5.5 5-12.75t-5-12.25z"  />
<glyph unicode="&#xe006;" d="M 351,449.5l-62-71.5l 60.5-285q 3-8 4-11.25t 0.25-7.25t-4.25-7.5l-78-93.5q-5-5.5 -12.75-5.5t-13.25,5.5l-77.5,93.5q-5,6.5 -4.75,10.75t 4.75,15.25l 60.5,285.5l-61.5,71q-6.5,6 -3.25,18.25t 14.25,12.25l 162.5,0 q 11,0 13.75-12.25t-3.25-18.25z"  />
<glyph unicode="&#xe007;" d="M 448.25,288q-13.25,0 -22.75,9.25t-9.5,22.75q-10.5,41.5 -47,68.75t-81,27.25q-44,0 -78.5-27t-45.5-69l 92,0 q 13.5,0 22.75-9.5t 9.25-22.75t-9.25-22.5t-22.75-9.25l-96,0 l0-64 l 96,0 q 13.5,0 22.75-9.5t 9.25-22.75t-9.25-22.5t-22.75-9.25l-92,0 q 11-42 45.5-69t 78.5-27q 44.5,0 81,27.25
t 47,68.75q0,13 9.5,22.5t 22.75,9.5t 22.5-9.5t 9.25-22.5q0-11.5 -7.5-20.5q-17.5-61 -68.5-100.25t-116-39.25q-71,0 -124.25,45.75t-64.75,114.25l-35,0 q-13.5,0 -22.75,9.25t-9.25,22.5t 9.25,22.75t 22.75,9.5l 32,0 l0,64 l-32,0 q-13.5,0 -22.75,9.25t-9.25,22.5t 9.25,22.75t 22.75,9.5l 35,0 q 11.5,68.5 64.75,114.25
t 124.25,45.75q 65,0 116-39.25t 68.5-100.25q 7.5-9 7.5-20.5q0-13.5 -9.25-22.75t-22.5-9.25z"  />
<glyph unicode="&#xe008;" d="M 466.5,223.5l-83,0 l0-95.5 q0-13.5 -9.25-22.75t-22.25-9.25l-192,0 q-13,0 -22.5,9.25t-9.5,22.75l0,95.5 l-82,0 q-6,0 -10,6.5t-3.5,15.5t 6.5,15l 194.5,210q 9,9.5 22.5,9.5t 23-9.5l 194-210q 6-6 6.75-15t-3.25-15.5t-10-6.5zM 160,64.5l 192,0 q 13,0 22.25-9.5t 9.25-22.5l0-32.5 q0-13 -9.25-22.5t-22.25-9.5l-192,0 
q-13,0 -22.5,9.25t-9.5,22.75l0,32.5 q0,13 9.5,22.5t 22.5,9.5z"  />
<glyph unicode="&#xe009;" d="M 448-32l-384,0 q-26.5,0 -45.25,18.75t-18.75,45.25l0,384 q0,26.5 18.75,45.25t 45.25,18.75l 384,0 q 26.5,0 45.25-18.75t 18.75-45.25l0-384 q0-26.5 -18.75-45.25t-45.25-18.75zM 352,96l-32,0 l0,32 l 32,0 l0,32 l-32,0 l0,32 l 32,0 l0,32 l-32,0 l0,32 l 32,0 l0,32 l-32,0 l0,32 l 32,0 l0,32 l-32,0 l0,32 l 32,0 l0,32 l-32,0 l0-32 l-32,0 l0,32 l-32,0 l0-32 l-32,0 l0,32 l-144,0 
q-6.5,0 -11.25-4.75t-4.75-11.25l0-352 q0-6.5 4.75-11.25t 11.25-4.75l 112,0 l0,32 l 32,0 l0-32 l 32,0 l0,32 l 32,0 l0-32 l 32,0 l0,32 l 32,0 l0,32 zM 288,64l0,32 l 32,0 l0-32 l-32,0 zM 288,160l 32,0 l0-32 l-32,0 l0,32 zM 288,224l 32,0 l0-32 l-32,0 l0,32 zM 288,288l 32,0 l0-32 l-32,0 l0,32 zM 288,352l 32,0 l0-32 l-32,0 l0,32 zM 256,352l0,32 l 32,0 l0-32 l-32,0 zM 192,352l0,32 l 32,0 
l0-32 l-32,0 zM 256,96l0-32 l-32,0 l0,32 l 32,0 zM 256,128l 32,0 l0-32 l-32,0 l0,32 zM 256,192l 32,0 l0-32 l-32,0 l0,32 zM 256,256l 32,0 l0-32 l-32,0 l0,32 zM 256,320l 32,0 l0-32 l-32,0 l0,32 zM 224,320l0,32 l 32,0 l0-32 l-32,0 zM 256,256l-32,0 l0,32 l 32,0 l0-32 zM 256,192l-32,0 l0,32 l 32,0 l0-32 zM 256,128l-32,0 l0,32 l 32,0 l0-32 zM 192,96l0,32 l 32,0 l0-32 l-32,0 zM 192,160l0,32 l 32,0 
l0-32 l-32,0 zM 192,224l0,32 l 32,0 l0-32 l-32,0 zM 192,288l0,32 l 32,0 l0-32 l-32,0 z"  />
<glyph unicode="&#xe00a;" d="M 512,256l0-64 q0-13.5 -9.5-22.75t-22.5-9.25l-448,0 q-13,0 -22.5,9.25t-9.5,22.75l0,64 q0,13 9.25,22.5t 22.75,9.5l 448,0 q 13,0 22.5-9.5t 9.5-22.5z"  />
<glyph unicode="&#xe00b;" d="M 384,96q-48.5,0 -128,76.5q-79.5-76.5 -128-76.5q-53,0 -90.5,37.5t-37.5,90.5t 37.5,90.5t 90.5,37.5q 49,0 128-76.5q 79.5,76.5 128,76.5q 53,0 90.5-37.5t 37.5-90.5t-37.5-90.5t-90.5-37.5zM 128,288q-28.5,0 -46.25-18.5t-17.75-45.5t 17.75-45.5t 46.25-18.5q 11,0 23.25,6.5t 22,16t 17.75,19t 12.5,16l 4.5,6.5
q-1.5,2.5 -4.5,6.75t-12.25,15.5t-18.25,19.5t-21.5,15.25t-23.5,7zM 384,288q-11,0 -23.25-6.5t-22-16t-17.75-19t-12.5-16l-4.5-6.5q 1.5-2.5 4.5-7t 12.25-15.5t 18.25-19.25t 21.5-15.25t 23.5-7q 28.5,0 46.25,18.5t 17.75,45.5t-17.75,45.5t-46.25,18.5z"  />
<glyph unicode="&#xe00c;" d="M 480,288l-192,0 l0-32 l 128,0 l 0.25,0 l 0.75,0 q 17-0.5 21.5-5l 68.5-47q 5-5 5-12t-5-12l-68.5-47q-5-5 -22.5-5l-128,0 l0-128 q0-13 -9.25-22.5t-22.75-9.5t-22.75,9.5t-9.25,22.5l0,128 l-192,0 q-13,0 -22.5,9.5t-9.5,22.5l0,64 q0,13 9.5,22.5t 22.5,9.5l 192,0 l0,32 l-128,0 q-17.5,0 -22.5,5l-68.5,47q-5,5 -5,12
t 5,12l 68.5,47q 4.5,5 21.5,5l 0.75,0 l 0.25,0 l 128,0 l0,32 q0,13 9.25,22.5t 22.75,9.5t 22.75-9.5t 9.25-22.5l0-32 l 192,0 q 13,0 22.5-9.25t 9.5-22.75l0-64 q0-13.5 -9.5-22.75t-22.5-9.25z"  />
<glyph unicode="&#xe00d;" d="M0-32l0,512.5 l 512,0 l0-512.5 l-512,0 zM 480,448.5l-448,0 l0-384.5 l 448,0 l0,384.5 zM 128,416.5q 26.5,0 45.25-18.75t 18.75-45.25t-18.75-45.25t-45.25-18.75t-45.25,18.5t-18.75,45l0,0.5 q0,26.5 18.75,45.25t 45.25,18.75zM 183.5,215.5l 119-119.5l-238.5,0 l0,46.5 l 73,73q 9,9 23.25,9t 23.25-9zM 345,311.5q 9,9.5 23.25,9.5t 23.25-9.5
l 56.5-56.5l0-159 l-102,0 q0,0.5 -0.75,1.75t-1.25,2.25l-105.5,105z"  />
<glyph unicode="&#xe00e;" d="M 495.25-15.25q-12.75-12.75 -29.25-16t-35.25,4.75t-36.25,27l-145,170q-32-15 -68.25-8.75t-62.75,32.75l-110.5,111q-8,7.5 -8,18.75t 8,19.25t 19.25,8t 18.75-8l 117-117q 19,4.5 36.5,15l-127.5,127.5q-8,8 -8,19.25t 8,19.25t 19,8t 19-8l 128-127.5q 10.5,17 15,36l-117,117
q-8,8 -8,19.25t 7.75,19t 19,7.75t 19.25-8l 111.5-110q 26-26.5 32.25-63t-8.75-68.5l 170-144q 19-17 27.25-36t 5-35.5t-16-29.25z"  />
<glyph unicode="&#xe00f;" d="M 480,0l-169,0 q-8.5-14.5 -23-23.25t-32-8.75t-32,8.75t-23,23.25l-169,0 q-13.5,0 -22.75,9.5t-9.25,22.5l0,32 q 26.5,0 45.25,37.5t 18.75,90.5l0,64 q0,71 45.75,124.25t 114.25,64.75l0,3 q0,13.5 9.5,22.75t 22.5,9.25t 22.5-9.25t 9.5-22.75l0-3 q 68.5-11.5 114.25-64.75t 45.75-124.25l0-64 q0-53 18.75-90.5
t 45.25-37.5l0-32 q0-13 -9.25-22.5t-22.75-9.5z"  />
<glyph unicode="&#xe010;" d="M 464,0q-20,0 -34,14t-14,34l0,160 q0,21 22.5,50.5t 41.5,29.5q 9.5,0 16.25-8.5t 9.75-22t 4.5-25.75t 1.5-23.75l0-160 q0-20 -14-34t-34-14zM 352,224l-192,0 q-13.5,0 -22.75,9.5t-9.25,22.5l-32,128q0,13.5 9.25,22.75t 22.75,9.25l 256,0 q 13,0 22.5-9.5t 9.5-22.5l-32-128q0-13 -9.5-22.5t-22.5-9.5zM 96,48
q0-20 -14-34t-34-14t-34,14t-14,34l0,160 q0,11.5 1.25,23.75t 4.5,25.75t 10,22t 16.25,8.5q 19,0 41.5-29.5t 22.5-50.5l0-160 zM 160,192l 192,0 q 13,0 22.5-9.25t 9.5-22.5t-9.5-22.75t-22.5-9.5l-192,0 q-13.5,0 -22.75,9.5t-9.25,22.75t 9.25,22.5t 22.75,9.25zM 160,96l 192,0 q 13,0 22.5-9.25t 9.5-22.75l0-32 
q0-13 -9.5-22.5t-22.5-9.5l-192,0 q-13.5,0 -22.75,9.5t-9.25,22.5l0,32 q0,13.5 9.25,22.75t 22.75,9.25z"  />
<glyph unicode="&#xe011;" d="M0-32l0,512 l 512,0 l0-512 l-512,0 zM 480,448l-448,0 l0-448 l 448,0 l0,448 z"  />
<glyph unicode="&#xe012;" d="M 496-32l-16,0 l0,16 q0,6.5 -4.75,11.25t-11.25,4.75t-11.25-4.75t-4.75-11.25l0-16 l-32,0 l0,48 q0,6.5 -4.75,11.25t-11.25,4.75t-11.25-4.75t-4.75-11.25l0-48 l-32,0 l0,16 q0,6.5 -4.75,11.25t-11.25,4.75t-11.25-4.75t-4.75-11.25l0-16 l-32,0 l0,48 q0,6.5 -4.75,11.25t-11.25,4.75t-11.25-4.75t-4.75-11.25l0-48 l-32,0 l0,16 
q0,6.5 -4.75,11.25t-11.25,4.75t-11.25-4.75t-4.75-11.25l0-16 l-32,0 l0,48 q0,6.5 -4.75,11.25t-11.25,4.75t-11.25-4.75t-4.75-11.25l0-48 l-32,0 l0,16 q0,6.5 -4.75,11.25t-11.25,4.75t-11.25-4.75t-4.75-11.25l0-16 l-48,0 q-6.5,0 -11.25,4.75t-4.75,11.25l 496,496q 6.5,0 11.25-4.75t 4.75-11.25l0-480 q0-6.5 -4.75-11.25
t-11.25-4.75zM 416,240q0,6.5 -4.75,11.25t-11.25,4.75l-176-176q0-6.5 4.75-11.25t 11.25-4.75l 160,0 q 6.5,0 11.25,4.75t 4.75,11.25l0,160 z"  />
<glyph unicode="&#xe013;" d="M 256-32q-52,0 -99.5,20.25t-81.75,54.5t-54.5,81.75t-20.25,99.75t 20.25,99.5t 54.5,81.5t 81.75,54.75t 99.5,20.5t 99.5-20.5t 81.75-54.75t 54.5-81.5t 20.25-99.5t-20.25-99.75t-54.5-81.75t-81.75-54.5t-99.5-20.25zM 256,352q-13,0 -22.5-9.25t-9.5-22.5t 9.25-22.75t 22.75-9.5t 22.75,9.5
t 9.25,22.75t-9.5,22.5t-22.5,9.25zM 256,224q-40,0 -68,28.25t-28,68t 28,67.75t 68,28q-52,0 -96.25-25.5t-70-69.75t-25.75-96.5t 25.75-96.5t 70-70t 96.25-25.75q 40,0 68,28.25t 28,68t-28,67.75t-68,28zM 256.25,96q-13.25,0 -22.75,9.5t-9.5,22.75t 9.5,22.5t 22.75,9.25t 22.5-9.25
t 9.25-22.5t-9.25-22.75t-22.5-9.5z"  />
<glyph unicode="&#xe014;" d="M 256-32q-52,0 -99.5,20.25t-81.75,54.5t-54.5,81.75t-20.25,99.5t 20.25,99.5t 54.5,81.75t 81.75,54.5t 99.5,20.25t 99.5-20.25t 81.75-54.5t 54.5-81.75t 20.25-99.5t-20.25-99.5t-54.5-81.75t-81.75-54.5t-99.5-20.25zM 144,352q-20,0 -34-18.75t-14-45.25t 14-45.25t 34-18.75t 34,18.75t 14,45.25
t-14,45.25t-34,18.75zM 368,352q-20,0 -34-18.75t-14-45.25t 14-45.25t 34-18.75t 34,18.75t 14,45.25t-14,45.25t-34,18.75zM 400,160l-288,0 q-6.5,0 -11.25-4.75t-4.75-11.25q 20-56.5 58.75-84.25t 100.75-27.75t 101.25,27.75t 59.25,84.25q0,6.5 -4.75,11.25t-11.25,4.75zM 255.5,64q-83,0 -111.5,57
q0,3 2.75,5t 6.75,2l 205,0 q 4,0 6.75-2t 2.75-5q-28.5-57 -112.5-57z"  />
<glyph unicode="&#xe015;" d="M 256-32q-52,0 -99.5,20.25t-81.75,54.5t-54.5,81.75t-20.25,99.5t 20.25,99.5t 54.5,81.75t 81.75,54.5t 99.5,20.25t 99.5-20.25t 81.75-54.5t 54.5-81.75t 20.25-99.5t-20.25-99.5t-54.5-81.75t-81.75-54.5t-99.5-20.25zM 256,416q-52,0 -96.25-25.5t-70-69.75t-25.75-96.5t 25.75-96.5t 70-70
t 96.25-25.75t 96.25,25.75t 70,70t 25.75,96.5t-25.75,96.5t-70,69.75t-96.25,25.5zM 256,192q-17.5,0 -27,15l-117,65l 144-16q 17.5,0 27-15l 117-65z"  />
<glyph unicode="&#xe016;" d="M 448,448l 64-128l-128,0 zM 288,448l 128,0 l-64-128zM 192,320l 64,128l 64-128l-128,0 zM 96,448l 128,0 l-64-128zM0,320l 64,128l 64-128l-128,0 zM 224,0l-224,288l 128,0 zM 352,288l-96-288l-96,288l 192,0 zM 512,288l-224-288l 96,288l 128,0 z"  />
<glyph unicode="&#xe017;" d="M 503,317.5l-309.5-309q-9-9 -26.5-8.5q-16,0.5 -24.5,8.5l-133.5,133.5q-9,9 -9,22t 9,22l 44.5,44.5q 9,9 22,9t 22-9l 70.5-70.5l 246.5,246q 9,9 22,9t 22-9l 44.5-44q 9-9.5 9-22.25t-9-22.25z"  />
<glyph unicode="&#xe018;" d="M 448,0l-288,0 q-26.5,0 -45.25,18.75t-18.75,45.25l-32,0 q-26.5,0 -45.25,18.75t-18.75,45.25l0,256 q0,26.5 18.75,45t 45.25,18.5l 384,0 q 26.5,0 45.25-18.5t 18.75-45l0-320 q0-26.5 -18.75-45.25t-45.25-18.75zM 208,128q 48,0 48,48t-48,48t-48-48t 48-48zM 432,384l-323.5,0 q-18.5,0 -31.5-12.5t-13-30.5l0-170.5 
q0-14.5 9-25.75t 23-14.75l0,158 q0,26.5 18.75,45.25t 45.25,18.75l 272,0 q 6.5,0 11.25,4.5t 4.75,11.25t-4.75,11.5t-11.25,4.75z"  />
<glyph unicode="&#xe019;" d="M 256-32q-52,0 -99.5,20.25t-81.75,54.5t-54.5,81.75t-20.25,99.5t 20.25,99.5t 54.5,81.75t 81.75,54.5t 99.5,20.25t 99.5-20.25t 81.75-54.5t 54.5-81.75t 20.25-99.5t-20.25-99.5t-54.5-81.75t-81.75-54.5t-99.5-20.25zM 256,416q-52,0 -96.25-25.75t-70-70t-25.75-96.25t 25.75-96.25
t 70-70t 96.25-25.75t 96.25,25.75t 70,70t 25.75,96.25t-25.75,96.25t-70,70t-96.25,25.75zM 343.5,136.5q-8.5-8.5 -20.5-8.5t-20.5,8.5l-47,47l-46.5-47q-8.5-8.5 -20.5-8.5t-20.5,8.5t-8.5,20.5t 8.5,20.5l 46.5,47l-46.5,46.5q-8.5,8.5 -8.5,20.5t 8.5,20.5t 20.5,8.5t 20.5-8.5l 46.5-47l 47,47q 8.5,8.5 20.5,8.5t 20.5-8.5t 8.5-20.5
t-8.5-20.5l-47-46.5l 47-47q 8.5-8.5 8.5-20.5t-8.5-20.5z"  />
<glyph unicode="&#xe01a;" d="M 256-32q-69.5,0 -128.5,34.25t-93.25,93.25t-34.25,128.5t 34.25,128.5t 93.25,93.25t 128.5,34.25t 128.5-34.25t 93.25-93.25t 34.25-128.5t-34.25-128.5t-93.25-93.25t-128.5-34.25zM 256,416q-52,0 -96.25-25.75t-70-70t-25.75-96.25t 25.75-96.25t 70-70t 96.25-25.75t 96.25,25.75t 70,70
t 25.75,96.25t-25.75,96.25t-70,70t-96.25,25.75zM 255,150.5q-2.5-9 -7.5-14q-10-10 -24.5-8q-14-1 -23,8q-5,5 -7,13.5l-57,57q-8.5,8.5 -8.5,20.5t 8.5,20.5t 20.5,8.5t 20.5-8.5l 46.5-46.5l 111,110.5q 8.5,8.5 20.5,8.5t 20.5-8.5t 8.5-20.5t-8.5-20.5z"  />
<glyph unicode="&#xe01b;" d="M 256-32q-69.5,0 -128.5,34.25t-93.25,93.25t-34.25,128.5t 34.25,128.5t 93.25,93.25t 128.5,34.25t 128.5-34.25t 93.25-93.25t 34.25-128.5t-34.25-128.5t-93.25-93.25t-128.5-34.25zM 384,256l-178.5,0 l 41,41q 9.5,9.5 9.5,23t-9.5,23t-23,9.5t-23-9.5l-95.5-95.5q-4-4 -6.5-11q0-0.5 -1-3l-0.25-0.75
t-0.25-1.25q0-1 -0.5-2.5l0-1 l0-1 q-2-16 8.5-26.5l 95.5-95.5q 9.5-9.5 23-9.5t 23,9.5t 9.5,23t-9.5,23l-41,41l 178.5,0 q 13,0 22.5,9.5t 9.5,22.5t-9.25,22.5t-22.75,9.5z"  />
<glyph unicode="&#xe01c;" d="M 256-32q-69.5,0 -128.5,34.25t-93.25,93.25t-34.25,128.5t 34.25,128.5t 93.25,93.25t 128.5,34.25t 128.5-34.25t 93.25-93.25t 34.25-128.5t-34.25-128.5t-93.25-93.25t-128.5-34.25zM 415.5,227l0,1 l0,1 q0,1.5 -0.5,2.5q0,0.5 -0.25,1.25t-0.5,1t-0.5,1.25t-0.25,1.5q-2.5,7 -6.5,11l-95.5,95.5q-9.5,9.5 -23,9.5t-23-9.5t-9.5-23
t 9.5-23l 41-41l-178.5,0 q-13.5,0 -22.75-9.5t-9.25-22.5t 9.25-22.5t 22.75-9.5l 178.5,0 l-41-41q-9.5-9.5 -9.5-23t 9.5-23t 23-9.5t 23,9.5l 95.5,95.5q 10.5,10.5 8.5,26.5z"  />
<glyph unicode="&#xe01d;" d="M 256-32q-69.5,0 -128.5,34.25t-93.25,93.25t-34.25,128.5t 34.25,128.5t 93.25,93.25t 128.5,34.25t 128.5-34.25t 93.25-93.25t 34.25-128.5t-34.25-128.5t-93.25-93.25t-128.5-34.25zM 374.5,279.5l-95,95q-11,10.5 -27,8.5l-0.75,0 l-0.75,0 q-1.5,0 -3-0.5l-0.75-0.25t-1.25-0.25l-1-0.5t-1.5-0.5q-7.5-2.5 -11.5-6.5
l-95-95q-9.5-9.5 -9.5-23t 9.5-23t 23-9.5t 23,9.5l 41,40.5l0-178 q0-13.5 9.25-22.75t 22.5-9.25t 22.5,9.25t 9.25,22.75l0,178 l 41-40.5q 9.5-9.5 23-9.5t 23,9.5t 9.5,23t-9.5,23z"  />
<glyph unicode="&#xe01e;" d="M 256-32q-69.5,0 -128.5,34.25t-93.25,93.25t-34.25,128.5t 34.25,128.5t 93.25,93.25t 128.5,34.25t 128.5-34.25t 93.25-93.25t 34.25-128.5t-34.25-128.5t-93.25-93.25t-128.5-34.25zM 374.5,214.5q-9.5,9.5 -23,9.5t-23-9.5l-41-40.5l0,178 q0,13.5 -9.25,22.75t-22.5,9.25t-22.5-9.25t-9.25-22.75l0-178 l-41,40.5
q-9.5,9.5 -23,9.5t-23-9.5t-9.5-23t 9.5-23l 95-95q 4-4 11.5-6.5q 0.5,0 1.5-0.5q 1,0 1.25-0.25t 1-0.5l 0.75-0.25q 1.5-0.5 3-0.5l 0.75,0 l 0.75,0 q 16-2 27,8.5l 95,95q 9.5,9.5 9.5,23t-9.5,23z"  />
<glyph unicode="&#xe01f;" d="M 256-32q-69.5,0 -128.5,34.25t-93.25,93.25t-34.25,128.5t 34.25,128.5t 93.25,93.25t 128.5,34.25t 128.5-34.25t 93.25-93.25t 34.25-128.5t-34.25-128.5t-93.25-93.25t-128.5-34.25zM 384,240q0,6.5 -4.75,11.25t-11.25,4.75l-80,0 l0,80 q0,6.5 -4.75,11.25t-11.25,4.75l-32,0 q-6.5,0 -11.25-4.75t-4.75-11.25l0-80 
l-80,0 q-6.5,0 -11.25-4.75t-4.75-11.25l0-32 q0-6.5 4.75-11.25t 11.25-4.75l 80,0 l0-80 q0-6.5 4.75-11.25t 11.25-4.75l 32,0 q 6.5,0 11.25,4.75t 4.75,11.25l0,80 l 80,0 q 6.5,0 11.25,4.75t 4.75,11.25l0,32 z"  />
<glyph unicode="&#xe020;" d="M 256-32q-69.5,0 -128.5,34.25t-93.25,93.25t-34.25,128.5t 34.25,128.5t 93.25,93.25t 128.5,34.25t 128.5-34.25t 93.25-93.25t 34.25-128.5t-34.25-128.5t-93.25-93.25t-128.5-34.25zM 384,240q0,6.5 -4.75,11.25t-11.25,4.75l-224,0 q-6.5,0 -11.25-4.75t-4.75-11.25l0-32 q0-6.5 4.75-11.25t 11.25-4.75l 224,0 
q 6.5,0 11.25,4.75t 4.75,11.25l0,32 z"  />
<glyph unicode="&#xe021;" d="M 256-32q-52,0 -99.5,20.25t-81.75,54.5t-54.5,81.75t-20.25,99.5t 20.25,99.5t 54.5,81.75t 81.75,54.5t 99.5,20.25t 99.5-20.25t 81.75-54.5t 54.5-81.75t 20.25-99.5t-20.25-99.5t-54.5-81.75t-81.75-54.5t-99.5-20.25zM 379.5,303q 4.5,5 4.5,11.5t-4.5,11l-22,22q-5,4.5 -11.25,4.5t-11.25-4.5l-79-79.5
l-79.5,79.5q-4.5,4.5 -11,4.5t-11-4.5l-22-22q-4.5-4.5 -4.5-11t 4.5-11.5l 79-79l-79-79q-4.5-5 -4.5-11.5t 4.5-11l 22-22q 4.5-4.5 11-4.5t 11,4.5l 79.5,79.5l 79-79.5q 5-4.5 11.25-4.5t 11.25,4.5l 22,22q 4.5,4.5 4.5,11t-4.5,11.5l-79.5,79z"  />
<glyph unicode="&#xe022;" d="M 256-32q-69.5,0 -128.5,34.25t-93.25,93.25t-34.25,128.5t 34.25,128.5t 93.25,93.25t 128.5,34.25t 128.5-34.25t 93.25-93.25t 34.25-128.5t-34.25-128.5t-93.25-93.25t-128.5-34.25zM 411.5,309.5l-22,22q-5,4.5 -11.25,4.5t-11.25-4.5l-151-151l-71.5,71q-4.5,4.5 -11,4.5t-11-4.5l-22-22q-4.5-4.5 -4.5-11t 4.5-11.5
l 76-75.5q 0.5-5.5 4-9l 22-22q 5.5-5.5 13.5-4q 8-1.5 13.5,4l 22,22q 3,3.5 4,9l 156,156q 4.5,4.5 4.5,11t-4.5,11z"  />
<glyph unicode="&#xe023;" d="M 256-32q-69.5,0 -128.5,34.25t-93.25,93.25t-34.25,128.5t 34.25,128.5t 93.25,93.25t 128.5,34.25t 128.5-34.25t 93.25-93.25t 34.25-128.5t-34.25-128.5t-93.25-93.25t-128.5-34.25zM 272.5,409q-6.5,7 -16.25,7t-16.25-7l-171-172.5q-6-7 -4.25-9.75t 9.25-2.75l 118,0 l0-160 q0-13.5 9.5-22.75
t 22.5-9.25l 64.5,0 q 13,0 22.5,9.25t 9.5,22.75l0,160 l 117.5,0 q 7.5,0 9.5,2.75t-4,9.75z"  />
<glyph unicode="&#xe024;" d="M 256-32q-69.5,0 -128.5,34.25t-93.25,93.25t-34.25,128.5t 34.25,128.5t 93.25,93.25t 128.5,34.25t 128.5-34.25t 93.25-93.25t 34.25-128.5t-34.25-128.5t-93.25-93.25t-128.5-34.25zM 438,224l-117.5,0 l0,160 q0,13.5 -9.5,22.75t-22.5,9.25l-64.5,0 q-13,0 -22.5-9.25t-9.5-22.75l0-160 l-118,0 q-7.5,0 -9.25-3t 4.25-9.5
l 171-172.5q 6.5-7 16.25-7t 16.25,7l 171,172.5q 6,6.5 4,9.5t-9.5,3z"  />
<glyph unicode="&#xe025;" d="M 448-32l-384,0 q-26.5,0 -45.25,18.75t-18.75,45.25l0,384 q0,26.5 18.75,45t 45.25,18.5l 288,0 l-64-63.5l-192,0 q-13.5,0 -22.75-9.5t-9.25-22.5l0-320 q0-13.5 9.5-22.75t 22.5-9.25l 320,0 q 13.5,0 22.75,9.25t 9.25,22.75l0,192 l 64,64l0-288 q0-26.5 -18.75-45.25t-45.25-18.75zM 160,200l 72-72l-104-32zM 264,152
l-80,79.5l 239.5,240q 8.5,8 20.25,8t 20.25-8l 39.5-40q 8-8 8.25-19.75t-8.25-20.25z"  />
<glyph unicode="&#xe026;" d="M 448-32l-384,0 q-26.5,0 -45.25,18.75t-18.75,45.25l0,384 q0,26.5 18.75,45.25t 45.25,18.75l 224,0 l0-64 l-192,0 q-13.5,0 -22.75-9.5t-9.25-22.5l0-320 q0-13.5 9.25-22.75t 22.75-9.25l 320,0 q 13.5,0 22.75,9.25t 9.25,22.75l0,151 l 64,53.5l0-236.5 q0-26.5 -18.75-45.25t-45.25-18.75zM 348,196.5q-6.5-6.5 -17.25-4
t-10.75,9.5l0,86 q-112,0 -192-160l0,32 q0,58 15,102t 41.5,70t 60.5,39t 75,13l0,85 q0,7 10.75,9.75t 17.25-3.75l 157-123q 6.5-6.5 6.5-16t-6.5-16.5z"  />
<glyph unicode="&#xe027;" d="M 481-26.5l-193,221.5l0-215 q-19-20 -31-6.5l-193,221l0-194.5 q0-13 -9.5-22.5t-22.75-9.5t-22.5,9.5t-9.25,22.5l0,448 q0,13.5 9.25,22.75t 22.5,9.25t 22.75-9.25t 9.5-22.75l0-195 l 193,221.5q 12.5,13.5 31-6.5l0-215.5 l 193,222q 12.5,13.5 31-6.5l0-488 q-18.5-20 -31-6.5z"  />
<glyph unicode="&#xe028;" d="M 480.25-32q-13.25,0 -22.75,9.5t-9.5,22.5l0,194.5 l-193-221q-12-13.5 -31,6.5l0,215 l-193-221.5q-12.5-13.5 -31,6.5l0,488 q 18.5,20 31,6.5l 193-222l0,215.5 q 18.5,20 31,6.5l 193-221.5l0,195 q0,13.5 9.25,22.75t 22.75,9.25t 22.75-9.25t 9.25-22.75l0-448 q0-13 -9.25-22.5t-22.5-9.5z"  />
<glyph unicode="&#xe029;" d="M 448-32l-384,0 q-26.5,0 -45.25,18.75t-18.75,45.25l0,384 q0,26.5 18.75,45.25t 45.25,18.75l 384,0 q 26.5,0 45.25-18.75t 18.75-45.25l0-384 q0-26.5 -18.75-45.25t-45.25-18.75zM 480,352q0,13 -9.5,22.5t-22.5,9.5l-384,0 q-13,0 -22.5-9.5t-9.5-22.5l0-320 q0-13.5 9.5-22.75t 22.5-9.25l 384,0 q 13,0 22.5,9.25t 9.5,22.75l0,320 z
M 432,32l-256,0 q-6.5,0 -11.25,4.75t-4.75,11.25t 4.75,11.25t 11.25,4.75l 256,0 q 6.5,0 11.25-4.75t 4.75-11.25t-4.75-11.25t-11.25-4.75zM 432,160l-256,0 q-6.5,0 -11.25,4.75t-4.75,11.25t 4.75,11.25t 11.25,4.75l 256,0 q 6.5,0 11.25-4.75t 4.75-11.25t-4.75-11.25t-11.25-4.75zM 432,288l-256,0 q-6.5,0 -11.25,4.75
t-4.75,11.25t 4.75,11.25t 11.25,4.75l 256,0 q 6.5,0 11.25-4.75t 4.75-11.25t-4.75-11.25t-11.25-4.75zM 112,32l-32,0 q-6.5,0 -11.25,4.75t-4.75,11.25l0,32 q0,6.5 4.75,11.25t 11.25,4.75l 32,0 q 6.5,0 11.25-4.75t 4.75-11.25l0-32 q0-6.5 -4.75-11.25t-11.25-4.75zM 112,160l-32,0 q-6.5,0 -11.25,4.75t-4.75,11.25l0,32 
q0,6.5 4.75,11.25t 11.25,4.75l 32,0 q 6.5,0 11.25-4.75t 4.75-11.25l0-32 q0-6.5 -4.75-11.25t-11.25-4.75zM 112,288l-32,0 q-6.5,0 -11.25,4.75t-4.75,11.25l0,32 q0,6.5 4.75,11.25t 11.25,4.75l 32,0 q 6.5,0 11.25-4.75t 4.75-11.25l0-32 q0-6.5 -4.75-11.25t-11.25-4.75z"  />
<glyph unicode="&#xe02a;" d="M 55-22.5q-9.5-9.5 -22.75-9.5t-22.75,9.5t-9.5,22.75t 9.5,22.75l 61,61q-55.5,60 -70,139.5q 11.5,63 48.5,114.25t 91.5,80.5t 115.5,29.25q 72.5,0 136-42l 64.5,64.5q 9.5,9.5 23,9.5t 22.75-9.25t 9.25-22.75t-9.5-23zM 256,383.5q-65.5,0 -122.5-32l-5.5,0 l0-3 q-36.5-22 -61.75-54.25t-33.75-70.75
q 14-62.5 70.5-107l 42.5,43q-17.5,29.5 -17.5,64q0,30 14,57l 28.5-14q-10.5-21 -10.5-43q0-21.5 9.5-40.5l 25,25q-2.5,8.5 -2.5,15.5q0,14.5 7,28.5l 26.5-13l 15,15.5l-13,26q 14,7 28.5,7q 7,0 16-2l 25,25q-19.5,9 -41,9t-42.5-10.5l-14.5,29q 27,13.5 57,13.5q 34.5,0 64.5-17.5l 30.5,30.5q-46,19 -95,19zM 383.5,210
q-5-45 -37-76.75t-76.5-36.75zM 256,64q 81,0 144.75,45.5t 79.25,114q-7,30 -25,58l 26.5,26.5q 22.5-40 30.5-84.5q-11.5-63 -48.75-114.25t-91.75-80.25t-115.5-29q-36,0 -71.5,11l 53.5,53.5q 10-0.5 18-0.5z"  />
<glyph unicode="&#xe02b;" d="M 503,136l-130.5-132q-1-1 -6.5-4q-5,3 -6,4l-8,7l 112,113q 16,16.5 16,32.5q0,15 -3,25.75t-5.75,14.5t-7.25,8.25l-224,226.5q-5,5 -15,10.5t-14.5,5.5l 31,0 q 14-0.5 22.5-9l 239-241.5q 9-9.5 9-30.75t-9-30.25zM 432,140.5l-128-129.5q-9.5-9.5 -24.25-9.5t-23.75,9.5l-247,250.5
q-12.5,13 -7.5,31q-1.5,5 -1.5,9.5l0,113 q0,13.5 9.5,23t 22.5,9.5l 112,0 q 4.5,0 9-1.5q 18.5,5 31-7.5l 248-249.5q 9-9.5 9-24.5t-9-24zM 112,383q-20,0 -34-14.25t-14-34.5t 14-34.25t 34-14t 34,14t 14,34.25t-14,34.5t-34,14.25z"  />
<glyph unicode="&#xe02c;" d="M 315,320q-11.5,0 -22-6.25t-14-15.25l-23-42.5l-224,0 l-4,0 q-8,0 -11.5-0.25t-8.25-1.5t-6.5-4.75t-1.75-9.5l0-16 l0,128 l 24.5,42.5q 3.5,9 14,15.25t 22.5,6.25l 120,0 q 11.5,0 22-6.25t 14-15.25l 23-42.5l 240,0 q 13,0 22.5-9.25t 9.5-22.75l-197,0 zM 32,224l 256,0 l 16,48q 3.5,9 9.5,12.5t 17.5,3.5l 133,0 q 25.5,0 32-16l 16-48
l0-128 q0-26.5 -18.75-45.25t-45.25-18.75l-384,0 q-26.5,0 -45.25,18.75t-18.75,45.25l0,96 q0,13.5 9.25,22.75t 22.75,9.25z"  />
<glyph unicode="&#xe02d;" d="M 256-32q-52,0 -99.5,20.25t-81.75,54.5t-54.5,81.75t-20.25,99.5t 20.25,99.5t 54.5,81.75t 81.75,54.5t 99.5,20.25t 99.5-20.25t 81.75-54.5t 54.5-81.75t 20.25-99.5t-20.25-99.5t-54.5-81.75t-81.75-54.5t-99.5-20.25zM 256,416q-52,0 -96.25-25.75t-70-70t-25.75-96.25t 25.75-96.25
t 70-70t 96.25-25.75l0,384 z"  />
<glyph unicode="&#xe02e;" d="M 512,192l-96-128l-96,128l 64,0 l0,128 l-192,0 l-48,64l 304,0 l0-192 l 64,0 zM 128,256l0-128 l 192,0 l 48-64l-304,0 l0,192 l-64,0 l 96,128l 96-128l-64,0 z"  />
<glyph unicode="&#xe02f;" d="M 432,256q-22,0 -42.5-6.5t-37-16l-33-19t-37-16t-42.5-6.5q-48.5,0 -80,40.5l0,215.5 q 9-11.5 18.25-18.5t 20.25-9.75t 18-3.25t 19.5-0.5l 4,0 q 22,0 42.5,6.5t 37,16l 33,19t 37,16t 42.5,6.5q 20,0 40.75-12t 39.25-36l0-208 q-11.5,11.5 -21.75,18.5t-20.75,9.75t-17.5,3.25t-20,0.5zM 192-0.25q0-13.25 -9.25-22.5
t-22.75-9.25l-128,0 q-13,0 -22.5,9.25t-9.5,22.5t 9.5,22.75t 22.5,9.5l 32,0 l0,416 q0,13 9.25,22.5t 22.75,9.5t 22.75-9.25t 9.25-22.75l0-416 l 32,0 q 13.5,0 22.75-9.5t 9.25-22.75z"  />
<glyph unicode="&#xe030;" d="M 400,191.5l-217-213q-10.5-10.5 -25.5-10.5t-25.5,10.5l-25.5,25.5q-10.5,10.5 -10.5,25.5t 10.5,25.5l 169,169l-169,169q-10.5,10.5 -10.5,25.5t 10.5,25.5l 25.5,25.5q 10.5,10.5 25.5,10.5t 25.5-10.5l 217-214q 16-16 16-31.75t-16-32.25z"  />
<glyph unicode="&#xe031;" d="M 112,191.5l 217-213q 10.5-10.5 25.5-10.5t 25.5,10.5l 25.5,25.5q 10.5,10.5 10.5,25.5t-10.5,25.5l-169,169l 169,169q 10.5,10.5 10.5,25.5t-10.5,25.5l-25.5,25.5q-10.5,10.5 -25.5,10.5t-25.5-10.5l-217-214q-16-16 -16-32t 16-32z"  />
<glyph unicode="&#xe032;" d="M 288.5,368l 213-217q 10.5-10.5 10.5-25.5t-10.5-25.5l-25.5-25.5q-10.5-10.5 -25.5-10.5t-25.5,10.5l-169,169l-169-169q-10.5-10.5 -25.5-10.5t-25.5,10.5l-25.5,25.5q-10.5,10.5 -10.5,25.5t 10.5,25.5l 214,217q 16,16 32,16t 32-16z"  />
<glyph unicode="&#xe033;" d="M 288.5,80l 213,217q 10.5,10.5 10.5,25.5t-10.5,25.5l-25.5,25.5q-10.5,10.5 -25.5,10.5t-25.5-10.5l-169-169l-169,169q-10.5,10.5 -25.5,10.5t-25.5-10.5l-25.5-25.5q-10.5-10.5 -10.5-25.5t 10.5-25.5l 214-217q 16-16 32-16t 32,16z"  />
<glyph unicode="&#xe034;" d="M 464-32l-416,0 q-20,0 -34,14t-14,34t 14,34t 34,14l 368,0 l0,368 q0,20 14,34t 34,14t 34-14t 14-34l0-416 q0-20 -14-34t-34-14z"  />
<glyph unicode="&#xe035;" d="M 464-32l-416,0 q-20,0 -34,14t-14,34l0,416 q0,20 14,34t 34,14t 34-14t 14-34l0-368 l 320,0 l0,368 q0,20 14,34t 34,14t 34-14t 14-34l0-416 q0-20 -14-34t-34-14z"  />
<glyph unicode="&#xe036;" d="M 464-32l-416,0 q-20,0 -34,14t-14,34l0,416 q0,20 14,34t 34,14t 34-14t 14-34l0-368 l 368,0 q 20,0 34-14t 14-34t-14-34t-34-14z"  />
<glyph unicode="&#xe037;" d="M 464-32l-416,0 q-20,0 -34,14t-14,34t 14,34t 34,14l 368,0 l0,320 l-368,0 q-20,0 -34,14t-14,34t 14,34t 34,14l 416,0 q 20,0 34-14t 14-34l0-416 q0-20 -14-34t-34-14z"  />
<glyph unicode="&#xe038;" d="M 464-32l-416,0 q-20,0 -34,14t-14,34l0,416 q0,20 14,34t 34,14l 416,0 q 20,0 34-14t 14-34l0-416 q0-20 -14-34t-34-14zM 416,384l-320,0 l0-320 l 320,0 l0,320 z"  />
<glyph unicode="&#xe039;" d="M 464,384l-368,0 l0-320 l 368,0 q 20,0 34-14t 14-34t-14-34t-34-14l-416,0 q-20,0 -34,14t-14,34l0,416 q0,20 14,34t 34,14l 416,0 q 20,0 34-14t 14-34t-14-34t-34-14z"  />
<glyph unicode="&#xe03a;" d="M 464-32q-20,0 -34,14t-14,34l0,368 l-368,0 q-20,0 -34,14t-14,34t 14,34t 34,14l 416,0 q 20,0 34-14t 14-34l0-416 q0-20 -14-34t-34-14z"  />
<glyph unicode="&#xe03b;" d="M 464-32q-20,0 -34,14t-14,34l0,368 l-320,0 l0-368 q0-20 -14-34t-34-14t-34,14t-14,34l0,416 q0,20 14,34t 34,14l 416,0 q 20,0 34-14t 14-34l0-416 q0-20 -14-34t-34-14z"  />
<glyph unicode="&#xe03c;" d="M 464,384l-368,0 l0-368 q0-20 -14-34t-34-14t-34,14t-14,34l0,416 q0,20 14,34t 34,14l 416,0 q 20,0 34-14t 14-34t-14-34t-34-14z"  />
<glyph unicode="&#xe03d;" d="M 464-32l-416,0 q-20,0 -34,14t-14,34t 14,34t 34,14l 368,0 l0,368 q0,20 14,34t 34,14t 34-14t 14-34l0-416 q0-20 -14-34t-34-14zM 256,160q-26.5,0 -45.25,18.75t-18.75,45.25t 18.75,45.25t 45.25,18.75t 45.25-18.75t 18.75-45.25t-18.75-45.25t-45.25-18.75z"  />
<glyph unicode="&#xe03e;" d="M 464-32l-416,0 q-20,0 -34,14t-14,34l0,416 q0,20 14,34t 34,14t 34-14t 14-34l0-368 l 320,0 l0,368 q0,20 14,34t 34,14t 34-14t 14-34l0-416 q0-20 -14-34t-34-14zM 256,160q-26.5,0 -45.25,18.75t-18.75,45.25t 18.75,45.25t 45.25,18.75t 45.25-18.75t 18.75-45.25t-18.75-45.25t-45.25-18.75z"  />
<glyph unicode="&#xe03f;" d="M 464-32l-416,0 q-20,0 -34,14t-14,34l0,416 q0,20 14,34t 34,14t 34-14t 14-34l0-368 l 368,0 q 20,0 34-14t 14-34t-14-34t-34-14zM 256,160q-26.5,0 -45.25,18.75t-18.75,45.25t 18.75,45.25t 45.25,18.75t 45.25-18.75t 18.75-45.25t-18.75-45.25t-45.25-18.75z"  />
<glyph unicode="&#xe040;" d="M 320,224q0-26.5 -18.75-45.25t-45.25-18.75t-45.25,18.75t-18.75,45.25t 18.75,45.25t 45.25,18.75t 45.25-18.75t 18.75-45.25zM 464-32l-416,0 q-20,0 -34,14t-14,34t 14,34t 34,14l 368,0 l0,320 l-368,0 q-20,0 -34,14t-14,34t 14,34t 34,14l 416,0 q 20,0 34-14t 14-34l0-416 q0-20 -14-34t-34-14z"  />
<glyph unicode="&#xe041;" d="M 464-32l-416,0 q-20,0 -34,14t-14,34l0,416 q0,20 14,34t 34,14l 416,0 q 20,0 34-14t 14-34l0-416 q0-20 -14-34t-34-14zM 416,384l-320,0 l0-320 l 320,0 l0,320 zM 256,288q 26.5,0 45.25-18.75t 18.75-45.25t-18.75-45.25t-45.25-18.75t-45.25,18.75t-18.75,45.25t 18.75,45.25t 45.25,18.75z"  />
<glyph unicode="&#xe042;" d="M 192,224q0,26.5 18.75,45.25t 45.25,18.75t 45.25-18.75t 18.75-45.25t-18.75-45.25t-45.25-18.75t-45.25,18.75t-18.75,45.25zM 464,384l-368,0 l0-320 l 368,0 q 20,0 34-14t 14-34t-14-34t-34-14l-416,0 q-20,0 -34,14t-14,34l0,416 q0,20 14,34t 34,14l 416,0 q 20,0 34-14t 14-34t-14-34t-34-14z"  />
<glyph unicode="&#xe043;" d="M 464-32q-20,0 -34,14t-14,34l0,368 l-368,0 q-20,0 -34,14t-14,34t 14,34t 34,14l 416,0 q 20,0 34-14t 14-34l0-416 q0-20 -14-34t-34-14zM 256,288q 26.5,0 45.25-18.75t 18.75-45.25t-18.75-45.25t-45.25-18.75t-45.25,18.75t-18.75,45.25t 18.75,45.25t 45.25,18.75z"  />
<glyph unicode="&#xe044;" d="M 464-32q-20,0 -34,14t-14,34l0,368 l-320,0 l0-368 q0-20 -14-34t-34-14t-34,14t-14,34l0,416 q0,20 14,34t 34,14l 416,0 q 20,0 34-14t 14-34l0-416 q0-20 -14-34t-34-14zM 256,288q 26.5,0 45.25-18.75t 18.75-45.25t-18.75-45.25t-45.25-18.75t-45.25,18.75t-18.75,45.25t 18.75,45.25t 45.25,18.75z
"  />
<glyph unicode="&#xe045;" d="M 464,384l-368,0 l0-368 q0-20 -14-34t-34-14t-34,14t-14,34l0,416 q0,20 14,34t 34,14l 416,0 q 20,0 34-14t 14-34t-14-34t-34-14zM 256,288q 26.5,0 45.25-18.75t 18.75-45.25t-18.75-45.25t-45.25-18.75t-45.25,18.75t-18.75,45.25t 18.75,45.25t 45.25,18.75z"  />
<glyph unicode="&#xe046;" d="M 505.5,398.5l-208-403.5q-10-19.5 -29.25-25.25t-36.25,5.25q-9.5,6.5 -16.5,18q0,0.5 -0.5,1t-0.5,1l-208,403.5q-10,19.5 -4.75,41t 22.25,32.5t 36.25,5.25t 29.25-25.25l 166.5-322.5l 166.5,322.5q 10,19.5 29.25,25.25t 36.25-5.25t 22.25-32.5t-4.75-41z"  />
<glyph unicode="&#xe047;" d="M 485,183l-404-208.5q-19.5-10 -41-4.75t-32.75,22.5t-5.5,36.5t 25.25,28.75l 323.5,167l-323.5,166.5q-19.5,10 -25.25,29.25t 5.5,36.5t 32.75,22.5t 41-4.75l 404-208.5q 0.5,0 1-0.5t 1-0.5q 11.5-6.5 18-16.5q 11-17.5 5.25-36.75t-25.25-28.75z"  />
<glyph unicode="&#xe048;" d="M 485,391l-323.5-166.5l 323.5-167q 19.5-9.5 25.25-28.75t-5.5-36.5t-32.75-22.5t-41,4.75l-404,208.5q-19.5,9.5 -25.25,28.75t 5.25,36.75q 6.5,10 18,16.5q 0.5,0 1,0.5t 1,0.5l 404,208.5q 19.5,10 41,4.75t 32.75-22.5t 5.5-36.5t-25.25-29.25z"  />
<glyph unicode="&#xe049;" d="M 488-24.75q-17-11.25 -36.25-5.5t-29.25,25.25l-166.5,323l-166.5-323q-10-19.5 -29.25-25.25t-36.25,5.5t-22.25,32.75t 4.75,40.5l 208,404l 0.5,0.75l 0.5,0.75q 6.5,11.5 16.5,18q 17,11 36.25,5.25t 29.25-24.75l 208-404q 10-19 4.75-40.5t-22.25-32.75z"  />
<glyph unicode="&#xe04a;" d="M 505.5,398.5l-208-403.5q-10-19.5 -29.25-25.25t-36.25,5.25q-10,6.5 -16.5,18q0,0.5 -0.5,1t-0.5,1l-208,403.5q-10,19.5 -4.75,41t 22.25,32.5t 36.25,5.25t 29.25-24.75l 166.5-323l 166.5,323q 10,19 29.25,24.75t 36.25-5.25t 22.25-32.5t-4.75-41zM 256,351.5q-26.5,0 -45.25,18.75t-18.75,45.25t 18.75,45.25t 45.25,18.75
t 45.25-18.75t 18.75-45.25t-18.75-45.25t-45.25-18.75z"  />
<glyph unicode="&#xe04b;" d="M 64,288.5q 26.5,0 45.25-18.75t 18.75-45.5t-18.75-45.5t-45.25-18.75t-45.25,18.75t-18.75,45.5t 18.75,45.5t 45.25,18.75zM 485,182.5l-404-208q-19-10 -40.5-4.75t-32.75,22.5t-5.5,36.25t 25.25,29l 323,166.5l-323,167q-19.5,9.5 -25.25,28.75t 5.5,36.5t 32.75,22.5t 40.5-4.75l 404-208l 1-1t 1-0.5q 11.5-6.5 18-16.5
q 11-17 5.25-36.25t-25.25-29.25z"  />
<glyph unicode="&#xe04c;" d="M 448,160q-26.5,0 -45.25,18.75t-18.75,45.5t 18.75,45.5t 45.25,18.75t 45.25-18.75t 18.75-45.5t-18.75-45.5t-45.25-18.75zM 484.5,391l-323-167l 323-166.5q 19.5-10 25.25-29t-5.5-36.25t-32.75-22.5t-40.5,4.75l-404,208q-19.5,10 -25.25,29.25t 5.25,36.25q 6.5,10 18,16.5q 0.5,0 1,0.5l 1,1l 404,208q 19,10 40.5,4.75
t 32.75-22.5t 5.5-36.5t-25.25-28.75z"  />
<glyph unicode="&#xe04d;" d="M 488-24.25q-17-11.25 -36.25-5.5t-29.25,25.25l-166.5,322.5l-166.5-322.5q-10-19.5 -29.25-25.25t-36.25,5.5t-22.25,32.75t 4.75,40.5l 208,403.5q0,0.5 0.5,1.25l 0.5,0.75q 6.5,11.5 16.5,18q 17,11 36.25,5.25t 29.25-25.25l 208-403.5q 10-19 4.75-40.5t-22.25-32.75zM 256,96q 26.5,0 45.25-18.75t 18.75-45.25
t-18.75-45.25t-45.25-18.75t-45.25,18.75t-18.75,45.25t 18.75,45.25t 45.25,18.75z"  />
<glyph unicode="&#xe04e;" d="M 384,160q-26.5,0 -45.25,18.75t-18.75,45.25t 18.75,45.25t 45.25,18.75t 45.25-18.75t 18.75-45.25t-18.75-45.25t-45.25-18.75zM 383.75,256q-13.25,0 -22.5-9.5t-9.25-22.75t 9.25-22.5t 22.75-9.25t 22.75,9.25t 9.25,22.75t-9.5,22.75t-22.75,9.25zM 384,352q-26.5,0 -45.25,18.75t-18.75,45.25t 18.75,45.25
t 45.25,18.75t 45.25-18.75t 18.75-45.25t-18.75-45.25t-45.25-18.75zM 383.75,448q-13.25,0 -22.5-9.5t-9.25-22.75t 9.25-22.5t 22.75-9.25t 22.75,9.25t 9.25,22.5t-9.5,22.75t-22.75,9.5zM 128-32q-26.5,0 -45.25,18.75t-18.75,45.25t 18.75,45.25t 45.25,18.75t 45.25-18.75t 18.75-45.25t-18.75-45.25t-45.25-18.75z
M 128.25,64q-13.25,0 -22.75-9.5t-9.5-22.75t 9.5-22.5t 22.75-9.25t 22.5,9.25t 9.25,22.5t-9.25,22.75t-22.5,9.5zM 128,160q-26.5,0 -45.25,18.75t-18.75,45.25t 18.75,45.25t 45.25,18.75t 45.25-18.75t 18.75-45.25t-18.75-45.25t-45.25-18.75zM 128.25,256q-13.25,0 -22.75-9.5t-9.5-22.75t 9.5-22.5t 22.75-9.25
t 22.5,9.25t 9.25,22.75t-9.25,22.75t-22.5,9.25zM 128,352q-26.5,0 -45.25,18.75t-18.75,45.25t 18.75,45.25t 45.25,18.75t 45.25-18.75t 18.75-45.25t-18.75-45.25t-45.25-18.75zM 384,96q 26.5,0 45.25-18.75t 18.75-45.25t-18.75-45.25t-45.25-18.75t-45.25,18.75t-18.75,45.25t 18.75,45.25t 45.25,18.75zM 383.75,0
q 13.25,0 22.75,9.5t 9.5,22.75t-9.5,22.5t-22.75,9.25t-22.5-9.25t-9.25-22.75t 9.25-22.75t 22.5-9.25z"  />
<glyph unicode="&#xe04f;" d="M 384,160q-26.5,0 -45.25,18.75t-18.75,45.25t 18.75,45.25t 45.25,18.75t 45.25-18.75t 18.75-45.25t-18.75-45.25t-45.25-18.75zM 383.75,256q-13.25,0 -22.5-9.5t-9.25-22.75t 9.25-22.5t 22.75-9.25t 22.75,9.25t 9.25,22.75t-9.5,22.75t-22.75,9.25zM 384,352q-26.5,0 -45.25,18.75t-18.75,45.25t 18.75,45.25
t 45.25,18.75t 45.25-18.75t 18.75-45.25t-18.75-45.25t-45.25-18.75zM 383.75,448q-13.25,0 -22.5-9.5t-9.25-22.75t 9.25-22.5t 22.75-9.25t 22.75,9.25t 9.25,22.5t-9.5,22.75t-22.75,9.5zM 128-32q-26.5,0 -45.25,18.75t-18.75,45.25t 18.75,45.25t 45.25,18.75t 45.25-18.75t 18.75-45.25t-18.75-45.25t-45.25-18.75z
M 128.25,64q-13.25,0 -22.75-9.5t-9.5-22.75t 9.25-22.5t 22.75-9.25t 22.75,9.25t 9.25,22.5t-9.25,22.75t-22.5,9.5zM 128,160q-26.5,0 -45.25,18.75t-18.75,45.25t 18.75,45.25t 45.25,18.75t 45.25-18.75t 18.75-45.25t-18.75-45.25t-45.25-18.75zM 128,352q-26.5,0 -45.25,18.75t-18.75,45.25t 18.75,45.25t 45.25,18.75
t 45.25-18.75t 18.75-45.25t-18.75-45.25t-45.25-18.75zM 384,96q 26.5,0 45.25-18.75t 18.75-45.25t-18.75-45.25t-45.25-18.75t-45.25,18.75t-18.75,45.25t 18.75,45.25t 45.25,18.75zM 383.75,0q 13.25,0 22.75,9.5t 9.5,22.75t-9.5,22.5t-22.75,9.25t-22.5-9.25t-9.25-22.75t 9.25-22.75t 22.5-9.25z"  />
<glyph unicode="&#xe050;" d="M 384,160q-26.5,0 -45.25,18.75t-18.75,45.25t 18.75,45.25t 45.25,18.75t 45.25-18.75t 18.75-45.25t-18.75-45.25t-45.25-18.75zM 384,256q-13.5,0 -22.75-9.5t-9.25-22.75t 9.25-22.5t 22.5-9.25t 22.75,9.25t 9.5,22.75t-9.25,22.75t-22.75,9.25zM 384,352q-26.5,0 -45.25,18.75t-18.75,45.25t 18.75,45.25
t 45.25,18.75t 45.25-18.75t 18.75-45.25t-18.75-45.25t-45.25-18.75zM 128-32q-26.5,0 -45.25,18.75t-18.75,45.25t 18.75,45.25t 45.25,18.75t 45.25-18.75t 18.75-45.25t-18.75-45.25t-45.25-18.75zM 128.25,64q-13.25,0 -22.75-9.5t-9.5-22.75t 9.5-22.5t 22.75-9.25t 22.5,9.25t 9.25,22.5t-9.25,22.75t-22.5,9.5z
M 128,160q-26.5,0 -45.25,18.75t-18.75,45.25t 18.75,45.25t 45.25,18.75t 45.25-18.75t 18.75-45.25t-18.75-45.25t-45.25-18.75zM 128.25,256q-13.25,0 -22.75-9.5t-9.5-22.75t 9.5-22.5t 22.75-9.25t 22.5,9.25t 9.25,22.75t-9.25,22.75t-22.5,9.25zM 128,352q-26.5,0 -45.25,18.75t-18.75,45.25t 18.75,45.25t 45.25,18.75
t 45.25-18.75t 18.75-45.25t-18.75-45.25t-45.25-18.75zM 384,96q 26.5,0 45.25-18.75t 18.75-45.25t-18.75-45.25t-45.25-18.75t-45.25,18.75t-18.75,45.25t 18.75,45.25t 45.25,18.75zM 383.75,0q 13.25,0 22.75,9.5t 9.5,22.75t-9.25,22.5t-22.75,9.25t-22.75-9.25t-9.25-22.75t 9.25-22.75t 22.5-9.25z"  />
<glyph unicode="&#xe051;" d="M 384,160q-26.5,0 -45.25,18.75t-18.75,45.25t 18.75,45.25t 45.25,18.75t 45.25-18.75t 18.75-45.25t-18.75-45.25t-45.25-18.75zM 384,352q-26.5,0 -45.25,18.75t-18.75,45.25t 18.75,45.25t 45.25,18.75t 45.25-18.75t 18.75-45.25t-18.75-45.25t-45.25-18.75zM 128-32q-26.5,0 -45.25,18.75t-18.75,45.25t 18.75,45.25
t 45.25,18.75t 45.25-18.75t 18.75-45.25t-18.75-45.25t-45.25-18.75zM 128.25,64q-13.25,0 -22.75-9.5t-9.5-22.75t 9.5-22.5t 22.75-9.25t 22.5,9.25t 9.25,22.5t-9.25,22.75t-22.5,9.5zM 128,160q-26.5,0 -45.25,18.75t-18.75,45.25t 18.75,45.25t 45.25,18.75t 45.25-18.75t 18.75-45.25t-18.75-45.25t-45.25-18.75z
M 128.25,256q-13.25,0 -22.75-9.5t-9.5-22.75t 9.5-22.5t 22.75-9.25t 22.5,9.25t 9.25,22.75t-9.25,22.75t-22.5,9.25zM 128,352q-26.5,0 -45.25,18.75t-18.75,45.25t 18.75,45.25t 45.25,18.75t 45.25-18.75t 18.75-45.25t-18.75-45.25t-45.25-18.75zM 384,96q 26.5,0 45.25-18.75t 18.75-45.25t-18.75-45.25
t-45.25-18.75t-45.25,18.75t-18.75,45.25t 18.75,45.25t 45.25,18.75zM 383.75,0q 13.25,0 22.75,9.5t 9.5,22.75t-9.5,22.5t-22.75,9.25t-22.5-9.25t-9.25-22.75t 9.25-22.75t 22.5-9.25z"  />
<glyph unicode="&#xe052;" d="M 384,160q-26.5,0 -45.25,18.75t-18.75,45.25t 18.75,45.25t 45.25,18.75t 45.25-18.75t 18.75-45.25t-18.75-45.25t-45.25-18.75zM 384,352q-26.5,0 -45.25,18.75t-18.75,45.25t 18.75,45.25t 45.25,18.75t 45.25-18.75t 18.75-45.25t-18.75-45.25t-45.25-18.75zM 383.75,448q-13.25,0 -22.5-9.5t-9.25-22.75
t 9.25-22.5t 22.75-9.25t 22.75,9.25t 9.25,22.5t-9.5,22.75t-22.75,9.5zM 128-32q-26.5,0 -45.25,18.75t-18.75,45.25t 18.75,45.25t 45.25,18.75t 45.25-18.75t 18.75-45.25t-18.75-45.25t-45.25-18.75zM 128.25,64q-13.25,0 -22.75-9.5t-9.5-22.75t 9.5-22.5t 22.75-9.25t 22.5,9.25t 9.25,22.5t-9.25,22.75t-22.5,9.5z
M 128,160q-26.5,0 -45.25,18.75t-18.75,45.25t 18.75,45.25t 45.25,18.75t 45.25-18.75t 18.75-45.25t-18.75-45.25t-45.25-18.75zM 128.25,256q-13.25,0 -22.75-9.5t-9.5-22.75t 9.5-22.5t 22.75-9.25t 22.5,9.25t 9.25,22.75t-9.25,22.75t-22.5,9.25zM 128,352q-26.5,0 -45.25,18.75t-18.75,45.25t 18.75,45.25t 45.25,18.75
t 45.25-18.75t 18.75-45.25t-18.75-45.25t-45.25-18.75zM 384,96q 26.5,0 45.25-18.75t 18.75-45.25t-18.75-45.25t-45.25-18.75t-45.25,18.75t-18.75,45.25t 18.75,45.25t 45.25,18.75zM 383.75,0q 13.25,0 22.75,9.5t 9.5,22.75t-9.5,22.5t-22.75,9.25t-22.5-9.25t-9.25-22.75t 9.25-22.75t 22.5-9.25z"  />
<glyph unicode="&#xe053;" d="M 384,160q-26.5,0 -45.25,18.75t-18.75,45.25t 18.75,45.25t 45.25,18.75t 45.25-18.75t 18.75-45.25t-18.75-45.25t-45.25-18.75zM 383.75,256q-13.25,0 -22.5-9.5t-9.25-22.75t 9.25-22.5t 22.5-9.25t 22.75,9.25t 9.5,22.75t-9.5,22.75t-22.75,9.25zM 384,352q-26.5,0 -45.25,18.75t-18.75,45.25t 18.75,45.25
t 45.25,18.75t 45.25-18.75t 18.75-45.25t-18.75-45.25t-45.25-18.75zM 128-32q-26.5,0 -45.25,18.75t-18.75,45.25t 18.75,45.25t 45.25,18.75t 45.25-18.75t 18.75-45.25t-18.75-45.25t-45.25-18.75zM 127.75,64q-13.25,0 -22.5-9.5t-9.25-22.75t 9.25-22.5t 22.5-9.25t 22.75,9.25t 9.5,22.5t-9.5,22.75t-22.75,9.5z
M 128,160q-26.5,0 -45.25,18.75t-18.75,45.25t 18.75,45.25t 45.25,18.75t 45.25-18.75t 18.75-45.25t-18.75-45.25t-45.25-18.75zM 128,352q-26.5,0 -45.25,18.75t-18.75,45.25t 18.75,45.25t 45.25,18.75t 45.25-18.75t 18.75-45.25t-18.75-45.25t-45.25-18.75zM 384,96q 26.5,0 45.25-18.75t 18.75-45.25t-18.75-45.25
t-45.25-18.75t-45.25,18.75t-18.75,45.25t 18.75,45.25t 45.25,18.75zM 383.75,0q 13.25,0 22.75,9.5t 9.5,22.75t-9.5,22.5t-22.75,9.25t-22.5-9.25t-9.25-22.75t 9.25-22.75t 22.5-9.25z"  />
<glyph unicode="&#xe054;" d="M 384,160q-26.5,0 -45.25,18.75t-18.75,45.25t 18.75,45.25t 45.25,18.75t 45.25-18.75t 18.75-45.25t-18.75-45.25t-45.25-18.75zM 384,352q-26.5,0 -45.25,18.75t-18.75,45.25t 18.75,45.25t 45.25,18.75t 45.25-18.75t 18.75-45.25t-18.75-45.25t-45.25-18.75zM 128-32q-26.5,0 -45.25,18.75t-18.75,45.25t 18.75,45.25
t 45.25,18.75t 45.25-18.75t 18.75-45.25t-18.75-45.25t-45.25-18.75zM 127.75,64q-13.25,0 -22.5-9.5t-9.25-22.75t 9.25-22.5t 22.5-9.25t 22.75,9.25t 9.5,22.5t-9.5,22.75t-22.75,9.5zM 128,160q-26.5,0 -45.25,18.75t-18.75,45.25t 18.75,45.25t 45.25,18.75t 45.25-18.75t 18.75-45.25t-18.75-45.25t-45.25-18.75z
M 128,352q-26.5,0 -45.25,18.75t-18.75,45.25t 18.75,45.25t 45.25,18.75t 45.25-18.75t 18.75-45.25t-18.75-45.25t-45.25-18.75zM 384,96q 26.5,0 45.25-18.75t 18.75-45.25t-18.75-45.25t-45.25-18.75t-45.25,18.75t-18.75,45.25t 18.75,45.25t 45.25,18.75zM 383.75,0q 13.25,0 22.75,9.5t 9.5,22.75t-9.5,22.5
t-22.75,9.25t-22.5-9.25t-9.25-22.75t 9.25-22.75t 22.5-9.25z"  />
<glyph unicode="&#xe055;" d="M 384,160q-26.5,0 -45.25,18.75t-18.75,45.25t 18.75,45.25t 45.25,18.75t 45.25-18.75t 18.75-45.25t-18.75-45.25t-45.25-18.75zM 384,352q-26.5,0 -45.25,18.75t-18.75,45.25t 18.75,45.25t 45.25,18.75t 45.25-18.75t 18.75-45.25t-18.75-45.25t-45.25-18.75zM 383.75,448q-13.25,0 -22.5-9.5t-9.25-22.75
t 9.25-22.5t 22.5-9.25t 22.75,9.25t 9.5,22.5t-9.5,22.75t-22.75,9.5zM 128-32q-26.5,0 -45.25,18.75t-18.75,45.25t 18.75,45.25t 45.25,18.75t 45.25-18.75t 18.75-45.25t-18.75-45.25t-45.25-18.75zM 127.75,64q-13.25,0 -22.5-9.5t-9.25-22.75t 9.25-22.5t 22.5-9.25t 22.75,9.25t 9.5,22.5t-9.5,22.75t-22.75,9.5zM 128,160
q-26.5,0 -45.25,18.75t-18.75,45.25t 18.75,45.25t 45.25,18.75t 45.25-18.75t 18.75-45.25t-18.75-45.25t-45.25-18.75zM 128,352q-26.5,0 -45.25,18.75t-18.75,45.25t 18.75,45.25t 45.25,18.75t 45.25-18.75t 18.75-45.25t-18.75-45.25t-45.25-18.75zM 384,96q 26.5,0 45.25-18.75t 18.75-45.25t-18.75-45.25
t-45.25-18.75t-45.25,18.75t-18.75,45.25t 18.75,45.25t 45.25,18.75zM 383.75,0q 13.25,0 22.75,9.5t 9.5,22.75t-9.5,22.5t-22.75,9.25t-22.5-9.25t-9.25-22.75t 9.25-22.75t 22.5-9.25z"  />
<glyph unicode="&#xe056;" d="M 384,160q-26.5,0 -45.25,18.75t-18.75,45.25t 18.75,45.25t 45.25,18.75t 45.25-18.75t 18.75-45.25t-18.75-45.25t-45.25-18.75zM 384,256q-13.5,0 -22.75-9.5t-9.25-22.75t 9.25-22.5t 22.5-9.25t 22.75,9.25t 9.5,22.75t-9.25,22.75t-22.75,9.25zM 384,352q-26.5,0 -45.25,18.75t-18.75,45.25t 18.75,45.25
t 45.25,18.75t 45.25-18.75t 18.75-45.25t-18.75-45.25t-45.25-18.75zM 128-32q-26.5,0 -45.25,18.75t-18.75,45.25t 18.75,45.25t 45.25,18.75t 45.25-18.75t 18.75-45.25t-18.75-45.25t-45.25-18.75zM 128,64q-13.5,0 -22.75-9.5t-9.25-22.75t 9.25-22.5t 22.5-9.25t 22.75,9.25t 9.5,22.5t-9.25,22.75t-22.75,9.5z
M 128,160q-26.5,0 -45.25,18.75t-18.75,45.25t 18.75,45.25t 45.25,18.75t 45.25-18.75t 18.75-45.25t-18.75-45.25t-45.25-18.75zM 128,352q-26.5,0 -45.25,18.75t-18.75,45.25t 18.75,45.25t 45.25,18.75t 45.25-18.75t 18.75-45.25t-18.75-45.25t-45.25-18.75zM 128,448q-13.5,0 -22.75-9.5t-9.25-22.75t 9.5-22.5
t 22.5-9.25t 22.5,9.25t 9.5,22.5t-9.25,22.75t-22.75,9.5zM 384,96q 26.5,0 45.25-18.75t 18.75-45.25t-18.75-45.25t-45.25-18.75t-45.25,18.75t-18.75,45.25t 18.75,45.25t 45.25,18.75zM 383.75,0q 13.25,0 22.75,9.5t 9.5,22.75t-9.5,22.5t-22.75,9.25t-22.5-9.25t-9.25-22.75t 9.25-22.75t 22.5-9.25z"  />
<glyph unicode="&#xe057;" d="M 384,160q-26.5,0 -45.25,18.75t-18.75,45.25t 18.75,45.25t 45.25,18.75t 45.25-18.75t 18.75-45.25t-18.75-45.25t-45.25-18.75zM 384,352q-26.5,0 -45.25,18.75t-18.75,45.25t 18.75,45.25t 45.25,18.75t 45.25-18.75t 18.75-45.25t-18.75-45.25t-45.25-18.75zM 128-32q-26.5,0 -45.25,18.75t-18.75,45.25t 18.75,45.25
t 45.25,18.75t 45.25-18.75t 18.75-45.25t-18.75-45.25t-45.25-18.75zM 127.75,64q-13.25,0 -22.5-9.5t-9.25-22.75t 9.25-22.5t 22.5-9.25t 22.75,9.25t 9.5,22.5t-9.5,22.75t-22.75,9.5zM 128,160q-26.5,0 -45.25,18.75t-18.75,45.25t 18.75,45.25t 45.25,18.75t 45.25-18.75t 18.75-45.25t-18.75-45.25t-45.25-18.75z
M 128,352q-26.5,0 -45.25,18.75t-18.75,45.25t 18.75,45.25t 45.25,18.75t 45.25-18.75t 18.75-45.25t-18.75-45.25t-45.25-18.75zM 128,448q-13.5,0 -22.75-9.5t-9.25-22.75t 9.5-22.5t 22.5-9.25t 22.5,9.25t 9.5,22.5t-9.25,22.75t-22.75,9.5zM 384,96q 26.5,0 45.25-18.75t 18.75-45.25t-18.75-45.25t-45.25-18.75
t-45.25,18.75t-18.75,45.25t 18.75,45.25t 45.25,18.75zM 383.75,0q 13.25,0 22.75,9.5t 9.5,22.75t-9.5,22.5t-22.75,9.25t-22.5-9.25t-9.25-22.75t 9.25-22.75t 22.5-9.25z"  />
<glyph unicode="&#xe058;" d="M 384,160q-26.5,0 -45.25,18.75t-18.75,45.25t 18.75,45.25t 45.25,18.75t 45.25-18.75t 18.75-45.25t-18.75-45.25t-45.25-18.75zM 383.75,256q-13.25,0 -22.5-9.5t-9.25-22.75t 9.25-22.5t 22.5-9.25t 22.75,9.25t 9.5,22.75t-9.5,22.75t-22.75,9.25zM 384,352q-26.5,0 -45.25,18.75t-18.75,45.25t 18.75,45.25
t 45.25,18.75t 45.25-18.75t 18.75-45.25t-18.75-45.25t-45.25-18.75zM 383.75,448q-13.25,0 -22.5-9.5t-9.25-22.75t 9.25-22.5t 22.5-9.25t 22.75,9.25t 9.5,22.5t-9.5,22.75t-22.75,9.5zM 128-32q-26.5,0 -45.25,18.75t-18.75,45.25t 18.75,45.25t 45.25,18.75t 45.25-18.75t 18.75-45.25t-18.75-45.25t-45.25-18.75z
M 128,160q-26.5,0 -45.25,18.75t-18.75,45.25t 18.75,45.25t 45.25,18.75t 45.25-18.75t 18.75-45.25t-18.75-45.25t-45.25-18.75zM 127.75,256q-13.25,0 -22.5-9.5t-9.25-22.75t 9.25-22.5t 22.5-9.25t 22.75,9.25t 9.5,22.75t-9.5,22.75t-22.75,9.25zM 128,352q-26.5,0 -45.25,18.75t-18.75,45.25t 18.75,45.25t 45.25,18.75
t 45.25-18.75t 18.75-45.25t-18.75-45.25t-45.25-18.75zM 384,96q 26.5,0 45.25-18.75t 18.75-45.25t-18.75-45.25t-45.25-18.75t-45.25,18.75t-18.75,45.25t 18.75,45.25t 45.25,18.75zM 383.75,0q 13.25,0 22.75,9.5t 9.5,22.75t-9.5,22.5t-22.75,9.25t-22.5-9.25t-9.25-22.75t 9.25-22.75t 22.5-9.25z"  />
<glyph unicode="&#xe059;" d="M 384,160q-26.5,0 -45.25,18.75t-18.75,45.25t 18.75,45.25t 45.25,18.75t 45.25-18.75t 18.75-45.25t-18.75-45.25t-45.25-18.75zM 383.75,256q-13.25,0 -22.5-9.5t-9.25-22.75t 9.25-22.5t 22.5-9.25t 22.75,9.25t 9.5,22.75t-9.5,22.75t-22.75,9.25zM 384,352q-26.5,0 -45.25,18.75t-18.75,45.25t 18.75,45.25
t 45.25,18.75t 45.25-18.75t 18.75-45.25t-18.75-45.25t-45.25-18.75zM 383.75,448q-13.25,0 -22.5-9.25t-9.25-22.75t 9.25-22.75t 22.5-9.25t 22.75,9.25t 9.5,22.5t-9.5,22.75t-22.75,9.5zM 128-32q-26.5,0 -45.25,18.75t-18.75,45.25t 18.75,45.25t 45.25,18.75t 45.25-18.75t 18.75-45.25t-18.75-45.25t-45.25-18.75z
M 128,160q-26.5,0 -45.25,18.75t-18.75,45.25t 18.75,45.25t 45.25,18.75t 45.25-18.75t 18.75-45.25t-18.75-45.25t-45.25-18.75zM 128,352q-26.5,0 -45.25,18.75t-18.75,45.25t 18.75,45.25t 45.25,18.75t 45.25-18.75t 18.75-45.25t-18.75-45.25t-45.25-18.75zM 384,96q 26.5,0 45.25-18.75t 18.75-45.25t-18.75-45.25
t-45.25-18.75t-45.25,18.75t-18.75,45.25t 18.75,45.25t 45.25,18.75zM 383.75,0q 13.25,0 22.75,9.5t 9.5,22.75t-9.5,22.5t-22.75,9.25t-22.5-9.25t-9.25-22.75t 9.25-22.75t 22.5-9.25z"  />
<glyph unicode="&#xe05a;" d="M 384,160q-26.5,0 -45.25,18.75t-18.75,45.25t 18.75,45.25t 45.25,18.75t 45.25-18.75t 18.75-45.25t-18.75-45.25t-45.25-18.75zM 383.75,256q-13.25,0 -22.5-9.5t-9.25-22.75t 9.25-22.5t 22.5-9.25t 22.75,9.25t 9.5,22.75t-9.5,22.75t-22.75,9.25zM 384,352q-26.5,0 -45.25,18.75t-18.75,45.25t 18.75,45.25
t 45.25,18.75t 45.25-18.75t 18.75-45.25t-18.75-45.25t-45.25-18.75zM 128-32q-26.5,0 -45.25,18.75t-18.75,45.25t 18.75,45.25t 45.25,18.75t 45.25-18.75t 18.75-45.25t-18.75-45.25t-45.25-18.75zM 128,160q-26.5,0 -45.25,18.75t-18.75,45.25t 18.75,45.25t 45.25,18.75t 45.25-18.75t 18.75-45.25t-18.75-45.25
t-45.25-18.75zM 127.75,256q-13.25,0 -22.5-9.5t-9.25-22.75t 9.25-22.5t 22.5-9.25t 22.75,9.25t 9.5,22.75t-9.5,22.75t-22.75,9.25zM 128,352q-26.5,0 -45.25,18.75t-18.75,45.25t 18.75,45.25t 45.25,18.75t 45.25-18.75t 18.75-45.25t-18.75-45.25t-45.25-18.75zM 384,96q 26.5,0 45.25-18.75t 18.75-45.25
t-18.75-45.25t-45.25-18.75t-45.25,18.75t-18.75,45.25t 18.75,45.25t 45.25,18.75zM 383.75,0q 13.25,0 22.75,9.5t 9.5,22.75t-9.5,22.5t-22.75,9.25t-22.5-9.25t-9.25-22.75t 9.25-22.75t 22.5-9.25z"  />
<glyph unicode="&#xe05b;" d="M 384,160q-26.5,0 -45.25,18.75t-18.75,45.25t 18.75,45.25t 45.25,18.75t 45.25-18.75t 18.75-45.25t-18.75-45.25t-45.25-18.75zM 384,352q-26.5,0 -45.25,18.75t-18.75,45.25t 18.75,45.25t 45.25,18.75t 45.25-18.75t 18.75-45.25t-18.75-45.25t-45.25-18.75zM 128-32q-26.5,0 -45.25,18.75t-18.75,45.25t 18.75,45.25
t 45.25,18.75t 45.25-18.75t 18.75-45.25t-18.75-45.25t-45.25-18.75zM 128,160q-26.5,0 -45.25,18.75t-18.75,45.25t 18.75,45.25t 45.25,18.75t 45.25-18.75t 18.75-45.25t-18.75-45.25t-45.25-18.75zM 128.25,256q-13.25,0 -22.75-9.5t-9.5-22.75t 9.5-22.5t 22.75-9.25t 22.5,9.25t 9.25,22.75t-9.25,22.75t-22.5,9.25
zM 128,352q-26.5,0 -45.25,18.75t-18.75,45.25t 18.75,45.25t 45.25,18.75t 45.25-18.75t 18.75-45.25t-18.75-45.25t-45.25-18.75zM 384,96q 26.5,0 45.25-18.75t 18.75-45.25t-18.75-45.25t-45.25-18.75t-45.25,18.75t-18.75,45.25t 18.75,45.25t 45.25,18.75zM 383.75,0q 13.25,0 22.75,9.5t 9.5,22.75t-9.5,22.5
t-22.75,9.25t-22.5-9.25t-9.25-22.75t 9.25-22.75t 22.5-9.25z"  />
<glyph unicode="&#xe05c;" d="M 384,160q-26.5,0 -45.25,18.75t-18.75,45.25t 18.75,45.25t 45.25,18.75t 45.25-18.75t 18.75-45.25t-18.75-45.25t-45.25-18.75zM 384,352q-26.5,0 -45.25,18.75t-18.75,45.25t 18.75,45.25t 45.25,18.75t 45.25-18.75t 18.75-45.25t-18.75-45.25t-45.25-18.75zM 384,448q-13.5,0 -22.75-9.25t-9.25-22.75
t 9.25-22.75t 22.5-9.25t 22.75,9.25t 9.5,22.5t-9.25,22.75t-22.75,9.5zM 128-32q-26.5,0 -45.25,18.75t-18.75,45.25t 18.75,45.25t 45.25,18.75t 45.25-18.75t 18.75-45.25t-18.75-45.25t-45.25-18.75zM 128,160q-26.5,0 -45.25,18.75t-18.75,45.25t 18.75,45.25t 45.25,18.75t 45.25-18.75t 18.75-45.25t-18.75-45.25
t-45.25-18.75zM 128.25,256q-13.25,0 -22.75-9.5t-9.5-22.75t 9.5-22.5t 22.75-9.25t 22.5,9.25t 9.25,22.75t-9.25,22.75t-22.5,9.25zM 128,352q-26.5,0 -45.25,18.75t-18.75,45.25t 18.75,45.25t 45.25,18.75t 45.25-18.75t 18.75-45.25t-18.75-45.25t-45.25-18.75zM 384,96q 26.5,0 45.25-18.75t 18.75-45.25
t-18.75-45.25t-45.25-18.75t-45.25,18.75t-18.75,45.25t 18.75,45.25t 45.25,18.75zM 383.75,0q 13.25,0 22.75,9.5t 9.5,22.75t-9.5,22.5t-22.75,9.25t-22.5-9.25t-9.25-22.75t 9.25-22.75t 22.5-9.25z"  />
<glyph unicode="&#xe05d;" d="M 384,160q-26.5,0 -45.25,18.75t-18.75,45.25t 18.75,45.25t 45.25,18.75t 45.25-18.75t 18.75-45.25t-18.75-45.25t-45.25-18.75zM 383.75,256q-13.25,0 -22.5-9.5t-9.25-22.75t 9.25-22.5t 22.5-9.25t 22.75,9.25t 9.5,22.75t-9.5,22.75t-22.75,9.25zM 384,352q-26.5,0 -45.25,18.75t-18.75,45.25t 18.75,45.25
t 45.25,18.75t 45.25-18.75t 18.75-45.25t-18.75-45.25t-45.25-18.75zM 128-32q-26.5,0 -45.25,18.75t-18.75,45.25t 18.75,45.25t 45.25,18.75t 45.25-18.75t 18.75-45.25t-18.75-45.25t-45.25-18.75zM 128,160q-26.5,0 -45.25,18.75t-18.75,45.25t 18.75,45.25t 45.25,18.75t 45.25-18.75t 18.75-45.25t-18.75-45.25
t-45.25-18.75zM 128,352q-26.5,0 -45.25,18.75t-18.75,45.25t 18.75,45.25t 45.25,18.75t 45.25-18.75t 18.75-45.25t-18.75-45.25t-45.25-18.75zM 384,96q 26.5,0 45.25-18.75t 18.75-45.25t-18.75-45.25t-45.25-18.75t-45.25,18.75t-18.75,45.25t 18.75,45.25t 45.25,18.75zM 383.75,0q 13.25,0 22.75,9.5t 9.5,22.75
t-9.5,22.5t-22.75,9.25t-22.5-9.25t-9.25-22.75t 9.25-22.75t 22.5-9.25z"  />
<glyph unicode="&#xe05e;" d="M 384,160q-26.5,0 -45.25,18.75t-18.75,45.25t 18.75,45.25t 45.25,18.75t 45.25-18.75t 18.75-45.25t-18.75-45.25t-45.25-18.75zM 384,352q-26.5,0 -45.25,18.75t-18.75,45.25t 18.75,45.25t 45.25,18.75t 45.25-18.75t 18.75-45.25t-18.75-45.25t-45.25-18.75zM 128-32q-26.5,0 -45.25,18.75t-18.75,45.25t 18.75,45.25
t 45.25,18.75t 45.25-18.75t 18.75-45.25t-18.75-45.25t-45.25-18.75zM 128,160q-26.5,0 -45.25,18.75t-18.75,45.25t 18.75,45.25t 45.25,18.75t 45.25-18.75t 18.75-45.25t-18.75-45.25t-45.25-18.75zM 128,352q-26.5,0 -45.25,18.75t-18.75,45.25t 18.75,45.25t 45.25,18.75t 45.25-18.75t 18.75-45.25t-18.75-45.25
t-45.25-18.75zM 384,96q 26.5,0 45.25-18.75t 18.75-45.25t-18.75-45.25t-45.25-18.75t-45.25,18.75t-18.75,45.25t 18.75,45.25t 45.25,18.75zM 383.75,0q 13.25,0 22.75,9.5t 9.5,22.75t-9.5,22.5t-22.75,9.25t-22.5-9.25t-9.25-22.75t 9.25-22.75t 22.5-9.25z"  />
<glyph unicode="&#xe05f;" d="M 384,160q-26.5,0 -45.25,18.75t-18.75,45.25t 18.75,45.25t 45.25,18.75t 45.25-18.75t 18.75-45.25t-18.75-45.25t-45.25-18.75zM 384,352q-26.5,0 -45.25,18.75t-18.75,45.25t 18.75,45.25t 45.25,18.75t 45.25-18.75t 18.75-45.25t-18.75-45.25t-45.25-18.75zM 383.75,448q-13.25,0 -22.5-9.25t-9.25-22.75
t 9.25-22.75t 22.5-9.25t 22.75,9.25t 9.5,22.5t-9.5,22.75t-22.75,9.5zM 128-32q-26.5,0 -45.25,18.75t-18.75,45.25t 18.75,45.25t 45.25,18.75t 45.25-18.75t 18.75-45.25t-18.75-45.25t-45.25-18.75zM 128,160q-26.5,0 -45.25,18.75t-18.75,45.25t 18.75,45.25t 45.25,18.75t 45.25-18.75t 18.75-45.25t-18.75-45.25
t-45.25-18.75zM 128,352q-26.5,0 -45.25,18.75t-18.75,45.25t 18.75,45.25t 45.25,18.75t 45.25-18.75t 18.75-45.25t-18.75-45.25t-45.25-18.75zM 384,96q 26.5,0 45.25-18.75t 18.75-45.25t-18.75-45.25t-45.25-18.75t-45.25,18.75t-18.75,45.25t 18.75,45.25t 45.25,18.75zM 383.75,0q 13.25,0 22.75,9.5t 9.5,22.75
t-9.5,22.5t-22.75,9.25t-22.5-9.25t-9.25-22.75t 9.25-22.75t 22.5-9.25z"  />
<glyph unicode="&#xe060;" d="M 384,160q-26.5,0 -45.25,18.75t-18.75,45.25t 18.75,45.25t 45.25,18.75t 45.25-18.75t 18.75-45.25t-18.75-45.25t-45.25-18.75zM 383.75,256q-13.25,0 -22.5-9.5t-9.25-22.75t 9.25-22.5t 22.5-9.25t 22.75,9.25t 9.5,22.75t-9.5,22.75t-22.75,9.25zM 384,352q-26.5,0 -45.25,18.75t-18.75,45.25t 18.75,45.25
t 45.25,18.75t 45.25-18.75t 18.75-45.25t-18.75-45.25t-45.25-18.75zM 128-32q-26.5,0 -45.25,18.75t-18.75,45.25t 18.75,45.25t 45.25,18.75t 45.25-18.75t 18.75-45.25t-18.75-45.25t-45.25-18.75zM 128,160q-26.5,0 -45.25,18.75t-18.75,45.25t 18.75,45.25t 45.25,18.75t 45.25-18.75t 18.75-45.25t-18.75-45.25
t-45.25-18.75zM 128,352q-26.5,0 -45.25,18.75t-18.75,45.25t 18.75,45.25t 45.25,18.75t 45.25-18.75t 18.75-45.25t-18.75-45.25t-45.25-18.75zM 127.75,448q-13.25,0 -22.5-9.25t-9.25-22.75t 9.25-22.75t 22.5-9.25t 22.75,9.25t 9.5,22.5t-9.5,22.75t-22.75,9.5zM 384,96q 26.5,0 45.25-18.75t 18.75-45.25
t-18.75-45.25t-45.25-18.75t-45.25,18.75t-18.75,45.25t 18.75,45.25t 45.25,18.75zM 383.75,0q 13.25,0 22.75,9.5t 9.5,22.75t-9.5,22.5t-22.75,9.25t-22.5-9.25t-9.25-22.5t 9.25-22.75t 22.5-9.5z"  />
<glyph unicode="&#xe061;" d="M 384,160q-26.5,0 -45.25,18.75t-18.75,45.25t 18.75,45.25t 45.25,18.75t 45.25-18.75t 18.75-45.25t-18.75-45.25t-45.25-18.75zM 384,352q-26.5,0 -45.25,18.75t-18.75,45.25t 18.75,45.25t 45.25,18.75t 45.25-18.75t 18.75-45.25t-18.75-45.25t-45.25-18.75zM 128-32q-26.5,0 -45.25,18.75t-18.75,45.25t 18.75,45.25
t 45.25,18.75t 45.25-18.75t 18.75-45.25t-18.75-45.25t-45.25-18.75zM 128,160q-26.5,0 -45.25,18.75t-18.75,45.25t 18.75,45.25t 45.25,18.75t 45.25-18.75t 18.75-45.25t-18.75-45.25t-45.25-18.75zM 128,352q-26.5,0 -45.25,18.75t-18.75,45.25t 18.75,45.25t 45.25,18.75t 45.25-18.75t 18.75-45.25t-18.75-45.25
t-45.25-18.75zM 128,448q-13.5,0 -22.75-9.5t-9.25-22.75t 9.25-22.5t 22.75-9.25t 22.75,9.25t 9.25,22.5t-9.25,22.75t-22.75,9.5zM 384,96q 26.5,0 45.25-18.75t 18.75-45.25t-18.75-45.25t-45.25-18.75t-45.25,18.75t-18.75,45.25t 18.75,45.25t 45.25,18.75zM 384,0q 13.5,0 22.75,9.25t 9.25,22.5t-9.25,22.75
t-22.75,9.5t-22.75-9.5t-9.25-22.75t 9.25-22.5t 22.75-9.25z"  />
<glyph unicode="&#xe062;" d="M 384,160q-26.5,0 -45.25,18.75t-18.75,45.25t 18.75,45.25t 45.25,18.75t 45.25-18.75t 18.75-45.25t-18.75-45.25t-45.25-18.75zM 383.75,256q-13.25,0 -22.5-9.5t-9.25-22.75t 9.25-22.5t 22.5-9.25t 22.75,9.25t 9.5,22.5t-9.5,22.75t-22.75,9.5zM 384,352q-26.5,0 -45.25,18.75t-18.75,45.25t 18.75,45.25t 45.25,18.75
t 45.25-18.75t 18.75-45.25t-18.75-45.25t-45.25-18.75zM 383.75,448q-13.25,0 -22.5-9.5t-9.25-22.75t 9.25-22.5t 22.5-9.25t 22.75,9.25t 9.5,22.5t-9.5,22.75t-22.75,9.5zM 128-32q-26.5,0 -45.25,18.75t-18.75,45.25t 18.75,45.25t 45.25,18.75t 45.25-18.75t 18.75-45.25t-18.75-45.25t-45.25-18.75zM 128,160
q-26.5,0 -45.25,18.75t-18.75,45.25t 18.75,45.25t 45.25,18.75t 45.25-18.75t 18.75-45.25t-18.75-45.25t-45.25-18.75zM 127.75,256q-13.25,0 -22.5-9.5t-9.25-22.75t 9.25-22.5t 22.5-9.25t 22.75,9.25t 9.5,22.5t-9.5,22.75t-22.75,9.5zM 128,352q-26.5,0 -45.25,18.75t-18.75,45.25t 18.75,45.25t 45.25,18.75t 45.25-18.75
t 18.75-45.25t-18.75-45.25t-45.25-18.75zM 384,96q 26.5,0 45.25-18.75t 18.75-45.25t-18.75-45.25t-45.25-18.75t-45.25,18.75t-18.75,45.25t 18.75,45.25t 45.25,18.75z"  />
<glyph unicode="&#xe063;" d="M 384,160q-26.5,0 -45.25,18.75t-18.75,45.25t 18.75,45.25t 45.25,18.75t 45.25-18.75t 18.75-45.25t-18.75-45.25t-45.25-18.75zM 384.25,256q-13.25,0 -22.75-9.5t-9.5-22.75t 9.5-22.5t 22.75-9.25t 22.5,9.25t 9.25,22.5t-9.25,22.75t-22.5,9.5zM 384,352q-26.5,0 -45.25,18.75t-18.75,45.25t 18.75,45.25t 45.25,18.75
t 45.25-18.75t 18.75-45.25t-18.75-45.25t-45.25-18.75zM 384.25,448q-13.25,0 -22.75-9.5t-9.5-22.75t 9.5-22.5t 22.75-9.25t 22.5,9.25t 9.25,22.5t-9.25,22.75t-22.5,9.5zM 128-32q-26.5,0 -45.25,18.75t-18.75,45.25t 18.75,45.25t 45.25,18.75t 45.25-18.75t 18.75-45.25t-18.75-45.25t-45.25-18.75zM 128,160
q-26.5,0 -45.25,18.75t-18.75,45.25t 18.75,45.25t 45.25,18.75t 45.25-18.75t 18.75-45.25t-18.75-45.25t-45.25-18.75zM 128,352q-26.5,0 -45.25,18.75t-18.75,45.25t 18.75,45.25t 45.25,18.75t 45.25-18.75t 18.75-45.25t-18.75-45.25t-45.25-18.75zM 384,96q 26.5,0 45.25-18.75t 18.75-45.25t-18.75-45.25
t-45.25-18.75t-45.25,18.75t-18.75,45.25t 18.75,45.25t 45.25,18.75z"  />
<glyph unicode="&#xe064;" d="M 384,160q-26.5,0 -45.25,18.75t-18.75,45.25t 18.75,45.25t 45.25,18.75t 45.25-18.75t 18.75-45.25t-18.75-45.25t-45.25-18.75zM 384,352q-26.5,0 -45.25,18.75t-18.75,45.25t 18.75,45.25t 45.25,18.75t 45.25-18.75t 18.75-45.25t-18.75-45.25t-45.25-18.75zM 128-32q-26.5,0 -45.25,18.75t-18.75,45.25t 18.75,45.25
t 45.25,18.75t 45.25-18.75t 18.75-45.25t-18.75-45.25t-45.25-18.75zM 128.25,64q-13.25,0 -22.75-9.5t-9.5-22.75t 9.5-22.5t 22.75-9.25t 22.5,9.25t 9.25,22.5t-9.25,22.75t-22.5,9.5zM 128,160q-26.5,0 -45.25,18.75t-18.75,45.25t 18.75,45.25t 45.25,18.75t 45.25-18.75t 18.75-45.25t-18.75-45.25t-45.25-18.75z
M 128,352q-26.5,0 -45.25,18.75t-18.75,45.25t 18.75,45.25t 45.25,18.75t 45.25-18.75t 18.75-45.25t-18.75-45.25t-45.25-18.75zM 128.25,448q-13.25,0 -22.75-9.5t-9.5-22.75t 9.5-22.5t 22.75-9.25t 22.5,9.25t 9.25,22.5t-9.25,22.75t-22.5,9.5zM 384,96q 26.5,0 45.25-18.75t 18.75-45.25t-18.75-45.25t-45.25-18.75
t-45.25,18.75t-18.75,45.25t 18.75,45.25t 45.25,18.75z"  />
<glyph unicode="&#xe065;" d="M 384,160q-26.5,0 -45.25,18.75t-18.75,45.25t 18.75,45.25t 45.25,18.75t 45.25-18.75t 18.75-45.25t-18.75-45.25t-45.25-18.75zM 384.25,256q-13.25,0 -22.75-9.5t-9.5-22.75t 9.5-22.5t 22.75-9.25t 22.5,9.25t 9.25,22.5t-9.25,22.75t-22.5,9.5zM 384,352q-26.5,0 -45.25,18.75t-18.75,45.25t 18.75,45.25t 45.25,18.75
t 45.25-18.75t 18.75-45.25t-18.75-45.25t-45.25-18.75zM 128-32q-26.5,0 -45.25,18.75t-18.75,45.25t 18.75,45.25t 45.25,18.75t 45.25-18.75t 18.75-45.25t-18.75-45.25t-45.25-18.75zM 128,160q-26.5,0 -45.25,18.75t-18.75,45.25t 18.75,45.25t 45.25,18.75t 45.25-18.75t 18.75-45.25t-18.75-45.25t-45.25-18.75z
M 128.25,256q-13.25,0 -22.75-9.5t-9.5-22.75t 9.5-22.5t 22.75-9.25t 22.5,9.25t 9.25,22.5t-9.25,22.75t-22.5,9.5zM 128,352q-26.5,0 -45.25,18.75t-18.75,45.25t 18.75,45.25t 45.25,18.75t 45.25-18.75t 18.75-45.25t-18.75-45.25t-45.25-18.75zM 384,96q 26.5,0 45.25-18.75t 18.75-45.25t-18.75-45.25t-45.25-18.75
t-45.25,18.75t-18.75,45.25t 18.75,45.25t 45.25,18.75z"  />
<glyph unicode="&#xe066;" d="M 384,160q-26.5,0 -45.25,18.75t-18.75,45.25t 18.75,45.25t 45.25,18.75t 45.25-18.75t 18.75-45.25t-18.75-45.25t-45.25-18.75zM 384,352q-26.5,0 -45.25,18.75t-18.75,45.25t 18.75,45.25t 45.25,18.75t 45.25-18.75t 18.75-45.25t-18.75-45.25t-45.25-18.75zM 128-32q-26.5,0 -45.25,18.75t-18.75,45.25t 18.75,45.25
t 45.25,18.75t 45.25-18.75t 18.75-45.25t-18.75-45.25t-45.25-18.75zM 128,160q-26.5,0 -45.25,18.75t-18.75,45.25t 18.75,45.25t 45.25,18.75t 45.25-18.75t 18.75-45.25t-18.75-45.25t-45.25-18.75zM 128.25,256q-13.25,0 -22.75-9.5t-9.5-22.75t 9.5-22.5t 22.75-9.25t 22.5,9.25t 9.25,22.5t-9.25,22.75t-22.5,9.5z
M 128,352q-26.5,0 -45.25,18.75t-18.75,45.25t 18.75,45.25t 45.25,18.75t 45.25-18.75t 18.75-45.25t-18.75-45.25t-45.25-18.75zM 384,96q 26.5,0 45.25-18.75t 18.75-45.25t-18.75-45.25t-45.25-18.75t-45.25,18.75t-18.75,45.25t 18.75,45.25t 45.25,18.75z"  />
<glyph unicode="&#xe067;" d="M 384,160q-26.5,0 -45.25,18.75t-18.75,45.25t 18.75,45.25t 45.25,18.75t 45.25-18.75t 18.75-45.25t-18.75-45.25t-45.25-18.75zM 384,352q-26.5,0 -45.25,18.75t-18.75,45.25t 18.75,45.25t 45.25,18.75t 45.25-18.75t 18.75-45.25t-18.75-45.25t-45.25-18.75zM 383.75,448q-13.25,0 -22.5-9.5t-9.25-22.75
t 9.25-22.5t 22.5-9.25t 22.75,9.25t 9.5,22.5t-9.5,22.75t-22.75,9.5zM 128-32q-26.5,0 -45.25,18.75t-18.75,45.25t 18.75,45.25t 45.25,18.75t 45.25-18.75t 18.75-45.25t-18.75-45.25t-45.25-18.75zM 128,160q-26.5,0 -45.25,18.75t-18.75,45.25t 18.75,45.25t 45.25,18.75t 45.25-18.75t 18.75-45.25t-18.75-45.25
t-45.25-18.75zM 127.75,256q-13.25,0 -22.5-9.5t-9.25-22.75t 9.25-22.5t 22.5-9.25t 22.75,9.25t 9.5,22.5t-9.5,22.75t-22.75,9.5zM 128,352q-26.5,0 -45.25,18.75t-18.75,45.25t 18.75,45.25t 45.25,18.75t 45.25-18.75t 18.75-45.25t-18.75-45.25t-45.25-18.75zM 384,96q 26.5,0 45.25-18.75t 18.75-45.25t-18.75-45.25
t-45.25-18.75t-45.25,18.75t-18.75,45.25t 18.75,45.25t 45.25,18.75z"  />
<glyph unicode="&#xe068;" d="M 384,160q-26.5,0 -45.25,18.75t-18.75,45.25t 18.75,45.25t 45.25,18.75t 45.25-18.75t 18.75-45.25t-18.75-45.25t-45.25-18.75zM 384,352q-26.5,0 -45.25,18.75t-18.75,45.25t 18.75,45.25t 45.25,18.75t 45.25-18.75t 18.75-45.25t-18.75-45.25t-45.25-18.75zM 383.75,448q-13.25,0 -22.5-9.5t-9.25-22.75
t 9.25-22.5t 22.5-9.25t 22.75,9.25t 9.5,22.5t-9.5,22.75t-22.75,9.5zM 128-32q-26.5,0 -45.25,18.75t-18.75,45.25t 18.75,45.25t 45.25,18.75t 45.25-18.75t 18.75-45.25t-18.75-45.25t-45.25-18.75zM 128,160q-26.5,0 -45.25,18.75t-18.75,45.25t 18.75,45.25t 45.25,18.75t 45.25-18.75t 18.75-45.25t-18.75-45.25
t-45.25-18.75zM 127.75,256q-13.25,0 -22.5-9.5t-9.25-22.75t 9.25-22.5t 22.5-9.25t 22.75,9.25t 9.5,22.5t-9.5,22.75t-22.75,9.5zM 128,352q-26.5,0 -45.25,18.75t-18.75,45.25t 18.75,45.25t 45.25,18.75t 45.25-18.75t 18.75-45.25t-18.75-45.25t-45.25-18.75zM 127.75,448q-13.25,0 -22.5-9.5t-9.25-22.75t 9.25-22.5
t 22.5-9.25t 22.75,9.25t 9.5,22.5t-9.5,22.75t-22.75,9.5zM 384,96q 26.5,0 45.25-18.75t 18.75-45.25t-18.75-45.25t-45.25-18.75t-45.25,18.75t-18.75,45.25t 18.75,45.25t 45.25,18.75z"  />
<glyph unicode="&#xe069;" d="M 384,160q-26.5,0 -45.25,18.75t-18.75,45.25t 18.75,45.25t 45.25,18.75t 45.25-18.75t 18.75-45.25t-18.75-45.25t-45.25-18.75zM 383.75,256q-13.25,0 -22.5-9.5t-9.25-22.75t 9.25-22.5t 22.5-9.25t 22.75,9.25t 9.5,22.5t-9.5,22.75t-22.75,9.5zM 384,352q-26.5,0 -45.25,18.75t-18.75,45.25t 18.75,45.25t 45.25,18.75
t 45.25-18.75t 18.75-45.25t-18.75-45.25t-45.25-18.75zM 383.75,448q-13.25,0 -22.5-9.5t-9.25-22.75t 9.25-22.5t 22.5-9.25t 22.75,9.25t 9.5,22.5t-9.5,22.75t-22.75,9.5zM 128-32q-26.5,0 -45.25,18.75t-18.75,45.25t 18.75,45.25t 45.25,18.75t 45.25-18.75t 18.75-45.25t-18.75-45.25t-45.25-18.75zM 128,64
q-13.5,0 -22.75-9.5t-9.25-22.75t 9.25-22.5t 22.5-9.25t 22.75,9.25t 9.5,22.5t-9.25,22.75t-22.75,9.5zM 128,160q-26.5,0 -45.25,18.75t-18.75,45.25t 18.75,45.25t 45.25,18.75t 45.25-18.75t 18.75-45.25t-18.75-45.25t-45.25-18.75zM 128,352q-26.5,0 -45.25,18.75t-18.75,45.25t 18.75,45.25t 45.25,18.75t 45.25-18.75
t 18.75-45.25t-18.75-45.25t-45.25-18.75zM 127.75,448q-13.25,0 -22.5-9.5t-9.25-22.75t 9.25-22.5t 22.5-9.25t 22.75,9.25t 9.5,22.5t-9.5,22.75t-22.75,9.5zM 384,96q 26.5,0 45.25-18.75t 18.75-45.25t-18.75-45.25t-45.25-18.75t-45.25,18.75t-18.75,45.25t 18.75,45.25t 45.25,18.75zM 383.75,0
q 13.25,0 22.75,9.25t 9.5,22.5t-9.5,22.75t-22.75,9.5t-22.5-9.5t-9.25-22.75t 9.25-22.5t 22.5-9.25z"  />
<glyph unicode="&#xe06a;" d="M 384,160q-26.5,0 -45.25,18.75t-18.75,45.25t 18.75,45.25t 45.25,18.75t 45.25-18.75t 18.75-45.25t-18.75-45.25t-45.25-18.75zM 384,256q-13.5,0 -22.75-9.5t-9.25-22.75t 9.5-22.5t 22.75-9.25t 22.5,9.25t 9.25,22.5t-9.25,22.75t-22.75,9.5zM 384,352q-26.5,0 -45.25,18.75t-18.75,45.25t 18.75,45.25t 45.25,18.75
t 45.25-18.75t 18.75-45.25t-18.75-45.25t-45.25-18.75zM 384,448q-13.5,0 -22.75-9.5t-9.25-22.75t 9.5-22.5t 22.75-9.25t 22.5,9.25t 9.25,22.5t-9.25,22.75t-22.75,9.5zM 128-32q-26.5,0 -45.25,18.75t-18.75,45.25t 18.75,45.25t 45.25,18.75t 45.25-18.75t 18.75-45.25t-18.75-45.25t-45.25-18.75zM 128,160
q-26.5,0 -45.25,18.75t-18.75,45.25t 18.75,45.25t 45.25,18.75t 45.25-18.75t 18.75-45.25t-18.75-45.25t-45.25-18.75zM 128,352q-26.5,0 -45.25,18.75t-18.75,45.25t 18.75,45.25t 45.25,18.75t 45.25-18.75t 18.75-45.25t-18.75-45.25t-45.25-18.75zM 128,448q-13.5,0 -22.75-9.5t-9.25-22.75t 9.5-22.5t 22.75-9.25
t 22.5,9.25t 9.25,22.5t-9.25,22.75t-22.75,9.5zM 384,96q 26.5,0 45.25-18.75t 18.75-45.25t-18.75-45.25t-45.25-18.75t-45.25,18.75t-18.75,45.25t 18.75,45.25t 45.25,18.75zM 384.25,0q 13.25,0 22.5,9.25t 9.25,22.5t-9.25,22.75t-22.75,9.5t-22.75-9.5t-9.25-22.75t 9.5-22.5t 22.75-9.25z"  />
<glyph unicode="&#xe06b;" d="M 384,160q-26.5,0 -45.25,18.75t-18.75,45.25t 18.75,45.25t 45.25,18.75t 45.25-18.75t 18.75-45.25t-18.75-45.25t-45.25-18.75zM 384,352q-26.5,0 -45.25,18.75t-18.75,45.25t 18.75,45.25t 45.25,18.75t 45.25-18.75t 18.75-45.25t-18.75-45.25t-45.25-18.75zM 383.75,448q-13.25,0 -22.5-9.25t-9.25-22.5
t 9.5-22.75t 22.5-9.5t 22.5,9.5t 9.5,22.75t-9.5,22.5t-22.75,9.25zM 128-32q-26.5,0 -45.25,18.75t-18.75,45.25t 18.75,45.25t 45.25,18.75t 45.25-18.75t 18.75-45.25t-18.75-45.25t-45.25-18.75zM 127.75,64q-13.25,0 -22.5-9.5t-9.25-22.75t 9.25-22.5t 22.5-9.25t 22.75,9.25t 9.5,22.5t-9.5,22.75t-22.75,9.5zM 128,160
q-26.5,0 -45.25,18.75t-18.75,45.25t 18.75,45.25t 45.25,18.75t 45.25-18.75t 18.75-45.25t-18.75-45.25t-45.25-18.75zM 128,352q-26.5,0 -45.25,18.75t-18.75,45.25t 18.75,45.25t 45.25,18.75t 45.25-18.75t 18.75-45.25t-18.75-45.25t-45.25-18.75zM 127.75,448q-13.25,0 -22.5-9.25t-9.25-22.5t 9.25-22.75t 22.5-9.5
t 22.75,9.5t 9.5,22.75t-9.5,22.5t-22.75,9.25zM 384,96q 26.5,0 45.25-18.75t 18.75-45.25t-18.75-45.25t-45.25-18.75t-45.25,18.75t-18.75,45.25t 18.75,45.25t 45.25,18.75zM 383.75,0q 13.25,0 22.75,9.25t 9.5,22.5t-9.25,22.75t-22.75,9.5t-22.75-9.5t-9.25-22.75t 9.25-22.5t 22.5-9.25z"  />
<glyph unicode="&#xe06c;" d="M 384,160q-26.5,0 -45.25,18.75t-18.75,45.25t 18.75,45.25t 45.25,18.75t 45.25-18.75t 18.75-45.25t-18.75-45.25t-45.25-18.75zM 384,352q-26.5,0 -45.25,18.75t-18.75,45.25t 18.75,45.25t 45.25,18.75t 45.25-18.75t 18.75-45.25t-18.75-45.25t-45.25-18.75zM 383.75,448q-13.25,0 -22.5-9.5t-9.25-22.75
t 9.25-22.5t 22.5-9.25t 22.75,9.25t 9.5,22.5t-9.5,22.75t-22.75,9.5zM 128-32q-26.5,0 -45.25,18.75t-18.75,45.25t 18.75,45.25t 45.25,18.75t 45.25-18.75t 18.75-45.25t-18.75-45.25t-45.25-18.75zM 127.75,64q-13.25,0 -22.5-9.5t-9.25-22.75t 9.25-22.5t 22.5-9.25t 22.75,9.25t 9.5,22.5t-9.5,22.75t-22.75,9.5zM 128,160
q-26.5,0 -45.25,18.75t-18.75,45.25t 18.75,45.25t 45.25,18.75t 45.25-18.75t 18.75-45.25t-18.75-45.25t-45.25-18.75zM 128,352q-26.5,0 -45.25,18.75t-18.75,45.25t 18.75,45.25t 45.25,18.75t 45.25-18.75t 18.75-45.25t-18.75-45.25t-45.25-18.75zM 127.75,448q-13.25,0 -22.5-9.5t-9.25-22.75t 9.25-22.5t 22.5-9.25
t 22.75,9.25t 9.5,22.5t-9.5,22.75t-22.75,9.5zM 384,96q 26.5,0 45.25-18.75t 18.75-45.25t-18.75-45.25t-45.25-18.75t-45.25,18.75t-18.75,45.25t 18.75,45.25t 45.25,18.75z"  />
<glyph unicode="&#xe06d;" d="M 384,160q-26.5,0 -45.25,18.75t-18.75,45.25t 18.75,45.25t 45.25,18.75t 45.25-18.75t 18.75-45.25t-18.75-45.25t-45.25-18.75zM 383.75,256q-13.25,0 -22.5-9.5t-9.25-22.75t 9.25-22.5t 22.5-9.25t 22.75,9.25t 9.5,22.5t-9.5,22.75t-22.75,9.5zM 384,352q-26.5,0 -45.25,18.75t-18.75,45.25t 18.75,45.25t 45.25,18.75
t 45.25-18.75t 18.75-45.25t-18.75-45.25t-45.25-18.75zM 383.75,448q-13.25,0 -22.5-9.5t-9.25-22.75t 9.25-22.5t 22.5-9.25t 22.75,9.25t 9.5,22.5t-9.5,22.75t-22.75,9.5zM 128-32q-26.5,0 -45.25,18.75t-18.75,45.25t 18.75,45.25t 45.25,18.75t 45.25-18.75t 18.75-45.25t-18.75-45.25t-45.25-18.75zM 127.75,64
q-13.25,0 -22.5-9.5t-9.25-22.75t 9.25-22.5t 22.5-9.25t 22.75,9.25t 9.5,22.5t-9.5,22.75t-22.75,9.5zM 128,160q-26.5,0 -45.25,18.75t-18.75,45.25t 18.75,45.25t 45.25,18.75t 45.25-18.75t 18.75-45.25t-18.75-45.25t-45.25-18.75zM 128,352q-26.5,0 -45.25,18.75t-18.75,45.25t 18.75,45.25t 45.25,18.75t 45.25-18.75
t 18.75-45.25t-18.75-45.25t-45.25-18.75zM 127.75,448q-13.25,0 -22.5-9.5t-9.25-22.75t 9.25-22.5t 22.5-9.25t 22.75,9.25t 9.5,22.5t-9.5,22.75t-22.75,9.5zM 384,96q 26.5,0 45.25-18.75t 18.75-45.25t-18.75-45.25t-45.25-18.75t-45.25,18.75t-18.75,45.25t 18.75,45.25t 45.25,18.75z"  />
<glyph unicode="&#xe06e;" d="M 384,160q-26.5,0 -45.25,18.75t-18.75,45.25t 18.75,45.25t 45.25,18.75t 45.25-18.75t 18.75-45.25t-18.75-45.25t-45.25-18.75zM 384,352q-26.5,0 -45.25,18.75t-18.75,45.25t 18.75,45.25t 45.25,18.75t 45.25-18.75t 18.75-45.25t-18.75-45.25t-45.25-18.75zM 383.75,448q-13.25,0 -22.5-9.5t-9.25-22.75
t 9.25-22.5t 22.5-9.25t 22.75,9.25t 9.5,22.5t-9.5,22.75t-22.75,9.5zM 128-32q-26.5,0 -45.25,18.75t-18.75,45.25t 18.75,45.25t 45.25,18.75t 45.25-18.75t 18.75-45.25t-18.75-45.25t-45.25-18.75zM 128,160q-26.5,0 -45.25,18.75t-18.75,45.25t 18.75,45.25t 45.25,18.75t 45.25-18.75t 18.75-45.25t-18.75-45.25
t-45.25-18.75zM 128,352q-26.5,0 -45.25,18.75t-18.75,45.25t 18.75,45.25t 45.25,18.75t 45.25-18.75t 18.75-45.25t-18.75-45.25t-45.25-18.75zM 127.75,448q-13.25,0 -22.5-9.5t-9.25-22.75t 9.25-22.5t 22.5-9.25t 22.75,9.25t 9.5,22.5t-9.5,22.75t-22.75,9.5zM 384,96q 26.5,0 45.25-18.75t 18.75-45.25t-18.75-45.25
t-45.25-18.75t-45.25,18.75t-18.75,45.25t 18.75,45.25t 45.25,18.75zM 383.75,0q 13.25,0 22.75,9.25t 9.5,22.5t-9.5,22.75t-22.75,9.5t-22.5-9.5t-9.25-22.75t 9.25-22.5t 22.5-9.25z"  />
<glyph unicode="&#xe06f;" d="M 384,160q-26.5,0 -45.25,18.75t-18.75,45.25t 18.75,45.25t 45.25,18.75t 45.25-18.75t 18.75-45.25t-18.75-45.25t-45.25-18.75zM 384,352q-26.5,0 -45.25,18.75t-18.75,45.25t 18.75,45.25t 45.25,18.75t 45.25-18.75t 18.75-45.25t-18.75-45.25t-45.25-18.75zM 384.25,448q-13.25,0 -22.75-9.5t-9.5-22.75t 9.5-22.5
t 22.75-9.25t 22.5,9.25t 9.25,22.5t-9.25,22.75t-22.5,9.5zM 128-32q-26.5,0 -45.25,18.75t-18.75,45.25t 18.75,45.25t 45.25,18.75t 45.25-18.75t 18.75-45.25t-18.75-45.25t-45.25-18.75zM 128,160q-26.5,0 -45.25,18.75t-18.75,45.25t 18.75,45.25t 45.25,18.75t 45.25-18.75t 18.75-45.25t-18.75-45.25t-45.25-18.75z
M 128,352q-26.5,0 -45.25,18.75t-18.75,45.25t 18.75,45.25t 45.25,18.75t 45.25-18.75t 18.75-45.25t-18.75-45.25t-45.25-18.75zM 128.25,448q-13.25,0 -22.75-9.5t-9.5-22.75t 9.5-22.5t 22.75-9.25t 22.5,9.25t 9.25,22.5t-9.25,22.75t-22.5,9.5zM 384,96q 26.5,0 45.25-18.75t 18.75-45.25t-18.75-45.25t-45.25-18.75
t-45.25,18.75t-18.75,45.25t 18.75,45.25t 45.25,18.75z"  />
<glyph unicode="&#xe070;" d="M 384,160q-26.5,0 -45.25,18.75t-18.75,45.25t 18.75,45.25t 45.25,18.75t 45.25-18.75t 18.75-45.25t-18.75-45.25t-45.25-18.75zM 384.25,256q-13.25,0 -22.75-9.5t-9.5-22.75t 9.5-22.5t 22.75-9.25t 22.5,9.25t 9.25,22.5t-9.25,22.75t-22.5,9.5zM 384,352q-26.5,0 -45.25,18.75t-18.75,45.25t 18.75,45.25t 45.25,18.75
t 45.25-18.75t 18.75-45.25t-18.75-45.25t-45.25-18.75zM 384.25,448q-13.25,0 -22.75-9.5t-9.5-22.75t 9.5-22.5t 22.75-9.25t 22.5,9.25t 9.25,22.5t-9.25,22.75t-22.5,9.5zM 128-32q-26.5,0 -45.25,18.75t-18.75,45.25t 18.75,45.25t 45.25,18.75t 45.25-18.75t 18.75-45.25t-18.75-45.25t-45.25-18.75zM 128,160
q-26.5,0 -45.25,18.75t-18.75,45.25t 18.75,45.25t 45.25,18.75t 45.25-18.75t 18.75-45.25t-18.75-45.25t-45.25-18.75zM 128,352q-26.5,0 -45.25,18.75t-18.75,45.25t 18.75,45.25t 45.25,18.75t 45.25-18.75t 18.75-45.25t-18.75-45.25t-45.25-18.75zM 128.25,448q-13.25,0 -22.75-9.5t-9.5-22.75t 9.5-22.5t 22.75-9.25
t 22.5,9.25t 9.25,22.5t-9.25,22.75t-22.5,9.5zM 384,96q 26.5,0 45.25-18.75t 18.75-45.25t-18.75-45.25t-45.25-18.75t-45.25,18.75t-18.75,45.25t 18.75,45.25t 45.25,18.75z"  />
<glyph unicode="&#xe071;" d="M 384,160q-26.5,0 -45.25,18.75t-18.75,45.25t 18.75,45.25t 45.25,18.75t 45.25-18.75t 18.75-45.25t-18.75-45.25t-45.25-18.75zM 384,352q-26.5,0 -45.25,18.75t-18.75,45.25t 18.75,45.25t 45.25,18.75t 45.25-18.75t 18.75-45.25t-18.75-45.25t-45.25-18.75zM 384.25,448q-13.25,0 -22.75-9.5t-9.5-22.75t 9.5-22.5
t 22.75-9.25t 22.5,9.25t 9.25,22.5t-9.25,22.75t-22.5,9.5zM 128-32q-26.5,0 -45.25,18.75t-18.75,45.25t 18.75,45.25t 45.25,18.75t 45.25-18.75t 18.75-45.25t-18.75-45.25t-45.25-18.75zM 128,160q-26.5,0 -45.25,18.75t-18.75,45.25t 18.75,45.25t 45.25,18.75t 45.25-18.75t 18.75-45.25t-18.75-45.25t-45.25-18.75z
M 128.25,256q-13.25,0 -22.75-9.5t-9.5-22.75t 9.5-22.5t 22.75-9.25t 22.5,9.25t 9.25,22.5t-9.25,22.75t-22.5,9.5zM 128,352q-26.5,0 -45.25,18.75t-18.75,45.25t 18.75,45.25t 45.25,18.75t 45.25-18.75t 18.75-45.25t-18.75-45.25t-45.25-18.75zM 128.25,448q-13.25,0 -22.75-9.5t-9.5-22.75t 9.5-22.5t 22.75-9.25
t 22.5,9.25t 9.25,22.5t-9.25,22.75t-22.5,9.5zM 384,96q 26.5,0 45.25-18.75t 18.75-45.25t-18.75-45.25t-45.25-18.75t-45.25,18.75t-18.75,45.25t 18.75,45.25t 45.25,18.75zM 384.25,0q 13.25,0 22.5,9.25t 9.25,22.5t-9.25,22.75t-22.5,9.5t-22.75-9.5t-9.5-22.75t 9.5-22.5t 22.75-9.25z"  />
<glyph unicode="&#xe072;" d="M 384,160q-26.5,0 -45.25,18.75t-18.75,45.25t 18.75,45.25t 45.25,18.75t 45.25-18.75t 18.75-45.25t-18.75-45.25t-45.25-18.75zM 384,256q-13.5,0 -22.75-9.5t-9.25-22.75t 9.25-22.5t 22.5-9.25t 22.75,9.25t 9.5,22.75t-9.25,22.75t-22.75,9.25zM 384,352q-26.5,0 -45.25,18.75t-18.75,45.25t 18.75,45.25
t 45.25,18.75t 45.25-18.75t 18.75-45.25t-18.75-45.25t-45.25-18.75zM 384,448q-13.5,0 -22.75-9.5t-9.25-22.75t 9.25-22.5t 22.5-9.25t 22.75,9.25t 9.5,22.5t-9.25,22.75t-22.75,9.5zM 128-32q-26.5,0 -45.25,18.75t-18.75,45.25t 18.75,45.25t 45.25,18.75t 45.25-18.75t 18.75-45.25t-18.75-45.25t-45.25-18.75z
M 128.25,64q-13.25,0 -22.75-9.5t-9.5-22.75t 9.5-22.5t 22.75-9.25t 22.5,9.25t 9.25,22.5t-9.25,22.75t-22.5,9.5zM 128,160q-26.5,0 -45.25,18.75t-18.75,45.25t 18.75,45.25t 45.25,18.75t 45.25-18.75t 18.75-45.25t-18.75-45.25t-45.25-18.75zM 128.25,256q-13.25,0 -22.75-9.5t-9.5-22.75t 9.5-22.5t 22.75-9.25
t 22.5,9.25t 9.25,22.75t-9.25,22.75t-22.5,9.25zM 128,352q-26.5,0 -45.25,18.75t-18.75,45.25t 18.75,45.25t 45.25,18.75t 45.25-18.75t 18.75-45.25t-18.75-45.25t-45.25-18.75zM 128.25,448q-13.25,0 -22.75-9.5t-9.5-22.75t 9.5-22.5t 22.75-9.25t 22.5,9.25t 9.25,22.5t-9.25,22.75t-22.5,9.5zM 384,96
q 26.5,0 45.25-18.75t 18.75-45.25t-18.75-45.25t-45.25-18.75t-45.25,18.75t-18.75,45.25t 18.75,45.25t 45.25,18.75zM 383.75,0q 13.25,0 22.75,9.5t 9.5,22.75t-9.25,22.5t-22.75,9.25t-22.75-9.25t-9.25-22.75t 9.25-22.75t 22.5-9.25z"  />
<glyph unicode="&#xe073;" d="M 432,96q-6.5,0 -11.25,4.75t-4.75,11.25l0,16 l-32,0 l0-96 q 13.5,0 22.75-9.25t 9.25-22.5t-9.25-22.75t-22.75-9.5l-256,0 q-13,0 -22.5,9.5t-9.5,22.75t 9.5,22.5t 22.5,9.25l0,96 l-32,0 l0-16 q0-6.5 -4.75-11.25t-11.25-4.75q-20,0 -34,18.75t-14,45.25t 14,45.25t 34,18.75q 6.5,0 11.25-4.75t 4.75-11.25l0-16 l 32,0 l0,64 
q-13,0 -22.5,9.5t-9.5,22.75t 9.5,22.5t 22.5,9.25q0,44.5 27,78.75t 69,45.25l0,4 q0,13.5 9.5,22.75t 22.75,9.25t 22.5-9.25t 9.25-22.75l0-4 q 42-11 69-45.5t 27-78.5q 13.5,0 22.75-9.25t 9.25-22.5t-9.25-22.75t-22.75-9.5l0-64 l 32,0 l0,16 q0,6.5 4.75,11.25t 11.25,4.75q 20,0 34-18.75t 14-45.25t-14-45.25t-34-18.75
z"  />
<glyph unicode="&#xe074;" d="M 496-32l-176,0 l0,64 q0,26.5 -18.75,45.25t-45.25,18.75t-45.25-18.75t-18.75-45.25l0-64 l-176,0 q-6.5,0 -11.25,4.75t-4.75,11.25l0,240 l0,16 l0,48 l 32,0 l0-16 q0-6.5 4.75-11.25t 11.25-4.75t 11.25,4.75t 4.75,11.25l0,16 l 32,0 l0-16 q0-6.5 4.75-11.25t 11.25-4.75t 11.25,4.75t 4.75,11.25l0,16 l 32,0 l0,96 l-16,0 q-6.5,0 -11.25,4.75
t-4.75,11.25l0,64 q0,6.5 4.75,11.25t 11.25,4.75l 16,0 l0-16 q0-6.5 4.75-11.25t 11.25-4.75t 11.25,4.75t 4.75,11.25l0,16 l 32,0 l0-16 q0-6.5 4.75-11.25t 11.25-4.75l 32,0 q 6.5,0 11.25,4.75t 4.75,11.25l0,16 l 32,0 l0-16 q0-6.5 4.75-11.25t 11.25-4.75t 11.25,4.75t 4.75,11.25l0,16 l 16,0 q 6.5,0 11.25-4.75t 4.75-11.25l0-64 
q0-6.5 -4.75-11.25t-11.25-4.75l-16,0 l0-96 l 32,0 l0-16 q0-6.5 4.75-11.25t 11.25-4.75t 11.25,4.75t 4.75,11.25l0,16 l 32,0 l0-16 q0-6.5 4.75-11.25t 11.25-4.75t 11.25,4.75t 4.75,11.25l0,16 l 32,0 l0-48 l0-16 l0-240 q0-6.5 -4.75-11.25t-11.25-4.75zM 128,160q0,13 -9.5,22.5t-22.75,9.5t-22.5-9.5t-9.25-22.5l0-32 l 64,0 l0,32 z
M 288,352q0,13 -9.5,22.5t-22.75,9.5t-22.5-9.5t-9.25-22.5l0-32 l 64,0 l0,32 zM 448,160q0,13 -9.5,22.5t-22.75,9.5t-22.5-9.5t-9.25-22.5l0-32 l 64,0 l0,32 z"  />
<glyph unicode="&#xe075;" d="M 480,256l-121-20q 25-34 25-76q0-53 -37.5-90.5t-90.5-37.5q-42.5,0 -76,24.75t-46,64.25l-41-72.5q-7.5-13 -22.5-16q-3-0.5 -5.5-0.5l-0.5,0 l-0.5,0 l-32,0 q-13,0 -22.5,9.5t-9.5,22.75t 9.5,22.5t 22.5,9.25l 13,0 l 55.5,97l-4.5-1q-36.5-2 -66.25,27.5t-29.75,68.5q0,39.5 27,68.75t 63,27.25l 6,0 l0,16 
q0,6.5 4.75,11.25t 11.25,4.75t 11.25-4.75t 4.75-11.25l0-16 l 352,0 q 13.5,0 22.75-18.75t 9.25-45.25q0-25.5 -9-42.5t-23-21.5zM 256,224q-26.5,0 -45.25-18.75t-18.75-45.25t 18.75-45.25t 45.25-18.75t 45.25,18.75t 18.75,45.25t-18.75,45.25t-45.25,18.75zM 255.75,128q-13.25,0 -22.5,9.5t-9.25,22.75t 9.25,22.5
t 22.5,9.25t 22.75-9.25t 9.5-22.5t-9.5-22.75t-22.75-9.5z"  />
<glyph unicode="&#xe076;" d="M 512,480zM 256,480l0,0 l0,0 zM 384,448q 53,0 90.5,9.25t 37.5,22.75l0-128 l-512,0 l0,128 l0,0 q0-13.5 37.5-22.75t 90.5-9.25t 90.5,9.25t 37.5,22.75q0-13.5 37.5-22.75t 90.5-9.25zM 256-32q-47,13.5 -84.25,32.75t-62.5,39.25t-44.25,48.5t-29.75,52t-18.25,58.25t-10.75,59t-6.25,62.25l 512,0 
q-3-38 -6.25-62.25t-10.75-59t-18.25-58.25t-29.75-52t-44.25-48.5t-62.5-39.25t-84.25-32.75z"  />
<glyph unicode="&#xe077;" d="M 336-32l-240,0 q-13,0 -22.5,9.5t-9.5,22.5l0,448 q0,13.5 9.25,22.75t 22.75,9.25l 320,0 q 13.5,0 22.75-9.25t 9.25-22.75l0-368 q0-46.5 -32.75-79.25t-79.25-32.75zM 320.25,32q 13.25,0 22.5,9.5t 9.25,22.75t-9.25,22.5t-22.5,9.25t-22.75-9.25t-9.5-22.5t 9.5-22.75t 22.75-9.5zM 96,120l0-16 q0-3.5 2.25-5.75
t 5.75-2.25l 24,0 l0-24 q0-3.5 2.25-5.75t 5.75-2.25l 16,0 q 3.5,0 5.75,2.25t 2.25,5.75l0,24 l 24,0 q 3.5,0 5.75,2.25t 2.25,5.75l0,16 q0,3.5 -2.25,5.75t-5.75,2.25l-24,0 l0,24 q0,3.5 -2.25,5.75t-5.75,2.25l-16,0 q-3.5,0 -5.75-2.25t-2.25-5.75l0-24 l-24,0 q-3.5,0 -5.75-2.25t-2.25-5.75zM 384,400q0,6.5 -4.75,11.25t-11.25,4.75
l-224,0 q-6.5,0 -11.25-4.75t-4.75-11.25l0-160 q0-6.5 4.75-11.25t 11.25-4.75l 224,0 q 6.5,0 11.25,4.75t 4.75,11.25l0,160 zM 384.25,160q-13.25,0 -22.75-9.25t-9.5-22.5t 9.5-22.75t 22.75-9.5t 22.5,9.5t 9.25,22.75t-9.25,22.5t-22.5,9.25z"  />
<glyph unicode="&#xe078;" d="M 512,192l0-160 q0-13 -9.5-22.5t-22.5-9.5l-448,0 q-13,0 -22.5,9.5t-9.5,22.5l0,160 q0,13 9.5,22.5t 22.5,9.5q-13,0 -22.5,9.25t-9.5,22.75l0,160 q0,13 9.5,22.5t 22.5,9.5l 448,0 q 13,0 22.5-9.5t 9.5-22.5l0-160 q0-13.5 -9.5-22.75t-22.5-9.25q 13.5,0 22.75-9.25t 9.25-22.75zM 432,64q 6.5,0 11.25,4.75t 4.75,11.25t-4.75,11.25
t-11.25,4.75t-11.25-4.75t-4.75-11.25t 4.75-11.25t 11.25-4.75zM 128,120q0,3.5 -2.25,5.75t-5.75,2.25l-24,0 l0,24 q0,3.5 -2.25,5.75t-5.75,2.25l-16,0 q-3.5,0 -5.75-2.25t-2.25-5.75l0-24 l-24,0 q-3.5,0 -5.75-2.25t-2.25-5.75l0-16 q0-3.5 2.25-5.75t 5.75-2.25l 24,0 l0-24 q0-3.5 2.25-5.75t 5.75-2.25l 16,0 
q 3.5,0 5.75,2.25t 2.25,5.75l0,24 l 24,0 q 3.5,0 5.75,2.25t 2.25,5.75l0,16 zM 352,400q0,6.5 -4.75,11.25t-11.25,4.75l-160,0 q-6.5,0 -11.25-4.75t-4.75-11.25l0-128 q0-6.5 4.75-11.25t 11.25-4.75l 160,0 q 6.5,0 11.25,4.75t 4.75,11.25l0,128 zM 352,176q0,6.5 -4.75,11.25t-11.25,4.75l-160,0 q-6.5,0 -11.25-4.75t-4.75-11.25l0-128 
q0-6.5 4.75-11.25t 11.25-4.75l 160,0 q 6.5,0 11.25,4.75t 4.75,11.25l0,128 zM 400,128q-6.5,0 -11.25-4.75t-4.75-11.25t 4.75-11.25t 11.25-4.75t 11.25,4.75t 4.75,11.25t-4.75,11.25t-11.25,4.75zM 432,160q-6.5,0 -11.25-4.75t-4.75-11.25t 4.75-11.25t 11.25-4.75t 11.25,4.75t 4.75,11.25t-4.75,11.25t-11.25,4.75z
M 464,128q-6.5,0 -11.25-4.75t-4.75-11.25t 4.75-11.25t 11.25-4.75t 11.25,4.75t 4.75,11.25t-4.75,11.25t-11.25,4.75z"  />
<glyph unicode="&#xe079;" d="M 270,34.5q 38-38.5 47.5-66.5l-123,0 q 9.5,28 47,66.5q-24.5,6.5 -55.75,33.5t-58,62.75t-45.25,78.75t-18.5,78.5q0,52 25.75,96.25t 70,70t 96.25,25.75t 96.25-25.75t 70-70t 25.75-96.25q0-35.5 -18.5-78.5t-45.25-78.75t-58-62.75t-56.25-33.5zM 191.5,382.5q-19,5.5 -37-8t-24-38
q-7-24 -2.5-84.25t 16-60.25q 7,0 11.5,16.25t 9.25,36.75t 11.25,27q 2.5,2.5 10,9.75t 11.75,11.75t 10,10.75t 9.25,12t 4.5,11.25q 11.5,43.5 -30,55z"  />
<glyph unicode="&#xe07a;" d="M 423,285l-286-124q-13-4 -24.75,3.25t-15.25,20.75t 3.25,25.75t 19.75,16.25l 286,124q 13.5,3.5 25-3.5t 15.25-20.75t-3.25-26t-20-15.75zM 391,381l-286-124q-13-4 -24.75,3.25t-15.25,20.75t 3.25,25.75t 19.75,15.75l 286,124.5q 13.5,3.5 25-3.5t 15.25-20.75t-3.25-26t-20-15.75zM 215,413l-78-28
q-13-4 -24.75,3t-15.25,20.75t 3.25,26t 19.75,15.75l 78.5,28.5q 13,3.5 24.75-3.5t 15.25-20.75t-3.25-26t-20.25-15.75zM 204.5,156.5q 5,4.5 11.5,6.5l 158,60q 13.5,3.5 25-3.5t 15.25-20.75t-3.25-26t-20-15.75l-135-51.5q-0.5-6.5 -0.5-9.5l 32,0 q 13.5,0 22.75-9.5t 9.25-22.75t-9.25-22.5t-22.75-9.25l-64,0 q-3,0 -6,0.5
q-24.5,2.5 -41.25,20.75t-16.75,42.75q0,21 12.5,37.75t 32.5,22.75zM 255.5-32q-26.5,0 -45.25,9.25t-18.75,22.75l 128,0 q0-13.5 -18.75-22.75t-45.25-9.25z"  />
<glyph unicode="&#xe07b;" d="M 256,480q 30.5,0 58.5-16.25t 48.25-43.25t 37-60.75t 27-69.75t 15.75-69.25t 5.5-60.75q0-52 -25.75-96.25t-70-70t-96.25-25.75t-96.25,25.75t-70,70t-25.75,96.25q0,27.5 5.5,60.75t 15.75,69.25t 27,69.75t 37,60.75t 48.25,43.25t 58.5,16.25z"  />
<glyph unicode="&#xe07c;" d="M 448,320l-128.5,26q-2.5-24.5 -20.5-41.25t-43-16.75l-32,0 l0,160 l 32,0 q 25,0 43-16.75t 20.5-40.75l 128.5,25.5q 64,0 64-47.5q0-26.5 -18-37.5t-46-11zM 176,256q-6.5,0 -11.25,4.75t-4.75,11.25l0,192 q0,6.5 4.75,11.25t 11.25,4.75t 11.25-4.75t 4.75-11.25l0-192 q0-6.5 -4.75-11.25t-11.25-4.75zM 112-32
q-6.5,0 -11.25,4.75t-4.75,11.25l0,480 q0,6.5 4.75,11.25t 11.25,4.75t 11.25-4.75t 4.75-11.25l0-480 q0-6.5 -4.75-11.25t-11.25-4.75zM0,304q0,6.5 4.75,11.25t 11.25,4.75l 48,0 l0-32 l-48,0 q-6.5,0 -11.25,4.75t-4.75,11.25zM0,368q0,6.5 4.75,11.25t 11.25,4.75l 48,0 l0-32 l-48,0 q-6.5,0 -11.25,4.75t-4.75,11.25zM0,432
q0,6.5 4.75,11.25t 11.25,4.75l 48,0 l0-32 l-48,0 q-6.5,0 -11.25,4.75t-4.75,11.25z"  />
<glyph unicode="&#xe07d;" d="M 364,240.5q-37.5,18.5 -75.5,31.5q 16.5,8.5 30.5,16l-126,0 q 10.5-5.5 63-32q 32-10.5 63.75-25t 67.5-38.25t 62.5-50.75t 44.5-64.25t 17.75-77.75q0-13 -9.25-22.5t-22.5-9.5t-22.75,9.5t-9.5,22.5l-384,0 q0-13 -9.5-22.5t-22.75-9.5t-22.5,9.5t-9.25,22.5q0,34 12,65.75t 33.75,57.25t 46.75,46t 55.5,38.5
q 37.5-18.5 75.5-31.5q-16.5-8.5 -30.5-16l 126,0 q-10.5,5.5 -63,32q-32,10.5 -63.75,25.25t-67.5,38.25t-62.5,50.5t-44.5,64.25t-17.75,77.75q0,13.5 9.25,22.75t 22.5,9.25t 22.75-9.25t 9.5-22.75l 384,0 q0,13.5 9.5,22.75t 22.75,9.25t 22.5-9.25t 9.25-22.75q0-34 -12-65.5t-33.75-57.25t-46.75-46.25t-55.5-38.5z
M 68,32l 375.5,0 q-4,16 -13,32l-349,0 q-9.5-16 -13.5-32zM 142.5,128q-23.5-17 -37.5-32l 301.5,0 q-15.5,16.5 -36.5,32l-227.5,0 zM 142,320l 227.5,0 q 23.5,17 37,32l-301,0 q 15.5-16.5 36.5-32zM 68.5,416q 4-16 13-32l 349,0 q 9.5,16 13.5,32l-375.5,0 z"  />
<glyph unicode="&#xe07e;" d="M 502.5,425l-154-154q 9.5-25.5 -4.5-39.5t-39.5-4.5l-0.5-0.5q 14.5-23.5 15.25-47.5t-8.75-43.5t-27-36.5q-44.5-44.5 -64-131q-23,11.5 -50.5,30q-5.5,25 2,49.5t 26,41.5q-23-7.5 -39.5-25t-22.5-40.5q-24.5,19.5 -42.5,37q-1,1 -2.75,3t-2.25,3q 17,17 24,38.5q-17.5-15.5 -39-22.5q-15.5,17.5 -27.5,33.5q 22,7 39,23.25
t 24,38.75q-16-18 -39-25.75t-47-3.75q-13.5,21.5 -22,39q 86.5,20 131,64q 17,17.5 36.5,27t 43.5,8.75t 47.5-15.25l 0.5,0.5q-9.5,25.5 4.5,39.5t 39.5,4.5l 154,154q 9.5,9.5 22.75,9.5t 22.75-9.5t 9.5-22.75t-9.5-22.75z"  />
<glyph unicode="&#xe07f;" d="M 210.75,113.25q-18.75,18.75 -18.75,45.25t 19,45.5l 272,181l-181.5-272q-18.5-18.5 -45.25-18.5t-45.5,18.75zM 256,383.5q-45.5,0 -87.25-18t-71.75-48t-47.75-71.5t-17.75-87q0-53 24-101l-28-14q-27.5,54.5 -27.5,114.5q0,52.5 20.25,99.75t 54.5,81.5t 81.75,54.5t 99.5,20.25q 80.5,0 146.5-46l-28.5-19
q-54.5,34 -118,34zM 466.5,304.5q 45.5-66 45.5-146q0-60 -27.5-114.5l-28,14.5q 24,47.5 24,100.5q0,62.5 -33,117z"  />
<glyph unicode="&#xe080;" d="M 256-32q-52,0 -99.5,20.25t-81.75,54.5t-54.5,81.75t-20.25,99.5t 20.25,99.5t 54.5,81.75t 81.75,54.5t 99.5,20.25t 99.5-20.25t 81.75-54.5t 54.5-81.75t 20.25-99.5t-20.25-99.5t-54.5-81.75t-81.75-54.5t-99.5-20.25zM 341.5,292.5q0,35 -25,60t-60.5,25t-60.5-25t-25-60l0-102.5 q0-7 -5-12
t-12-5t-12,5t-5,12l0,51 l-68.5,0 l0-51 q0-35.5 25-60.5t 60.5-25t 60.5,25t 25,60.5l0,102.5 q0,7 5,12t 12,5t 12-5t 5-12l0-17.5 l 34-34l 34.5,34l0,17.5 zM 375.5,241l0-51 q0-7 -5-12t-12-5t-12,5t-5,12l0,51 l-34.5-34l-34,34l0-51 q0-35.5 25-60.5t 60.25-25t 60.25,25t 25,60.5l0,51 l-68,0 z
"  />
<glyph unicode="&#xe081;" d="M 384,0l-32,0 l0-16 q0-6.5 -4.75-11.25t-11.25-4.75t-11.25,4.75t-4.75,11.25l0,16 l-128,0 l0-16 q0-6.5 -4.75-11.25t-11.25-4.75t-11.25,4.75t-4.75,11.25l0,16 l-32,0 q-13,0 -22.5,9.5t-9.5,22.5l0,224 q0,13.5 9.25,22.75t 22.75,9.25l 256,0 q 13.5,0 22.75-9.25t 9.25-22.75l0-224 q0-13 -9.25-22.5t-22.75-9.5zM 160,240
q0,6.5 -4.75,11.25t-11.25,4.75t-11.25-4.75t-4.75-11.25l0-32 q0-6.5 4.75-11.25t 11.25-4.75t 11.25,4.75t 4.75,11.25l0,32 zM 384,320l-256,0 q-13,0 -22.5,9.5t-9.5,22.5l0,96 q0,13.5 9.5,22.75t 22.5,9.25l 256,0 q 13.5,0 22.75-9.25t 9.25-22.75l0-96 q0-13 -9.25-22.5t-22.75-9.5zM 160,400q0,6.5 -4.75,11.25t-11.25,4.75
t-11.25-4.75t-4.75-11.25l0-32 q0-6.5 4.75-11.25t 11.25-4.75t 11.25,4.75t 4.75,11.25l0,32 z"  />
<glyph unicode="&#xe082;" d="M 480.5,96l-144.5,0 l-80-128l-80,128l-144,0 l 64,128l-64,128l 144,0 l 80,128l 80-128l 144.5,0 l-64.5-128zM 432,128l-33.5,67.5l-42.5-67.5l 76,0 zM 256,32l 43,64l-85.5,0 zM 80,128l 76,0 l-42,67.5zM 80,320l 34-67.5l 42,67.5l-76,0 zM 256,416l-42.5-64l 85.5,0 zM 320,320l-128,0 l-64-96l 64-96l 128,0 
l 64,96zM 432,320l-76,0 l 42.5-67.5z"  />
<glyph unicode="&#xe083;" d="M 416,224l-96,0 l0-224 q0-13 -9.25-22.5t-22.75-9.5l-64,0 q-13,0 -22.5,9.5t-9.5,22.5l0,224 l-96,0 q-13,0 -22.5,9.5t-9.5,22.5l0,64 q0,13.5 9.25,22.75t 22.75,9.25l 96,0 l0,96 q0,13.5 9.5,22.75t 22.5,9.25l 64,0 q 13.5,0 22.75-9.25t 9.25-22.75l0-96 l 96,0 q 13.5,0 22.75-9.25t 9.25-22.75l0-64 q0-13 -9.25-22.5
t-22.75-9.5z"  />
<glyph unicode="&#xe084;" d="M 320,416q-52,0 -96.25-25.75t-70-70t-25.75-96.25t 25.75-96.25t 70-70t 96.25-25.75q 47.5,0 91.5,21.5t 74,57.5q-32-64.5 -93.5-103.75t-136-39.25q-52,0 -99.5,20.25t-81.75,54.5t-54.5,81.75t-20.25,99.5t 20.25,99.5t 54.5,81.75t 81.75,54.5t 99.5,20.25q 74.5,0 136-39.25t 93.5-103.75
q-30,36 -74,57.5t-91.5,21.5zM 393,254.5l 23,65.5l 23-65.5l 73,0.5l-59-44.5l 19.5-66.5l-56.5,39l-56.5-39l 19.5,66.5l-59,44.5z"  />
<glyph unicode="&#xe085;" d="M 512,288l0-64 l-50.5,0 q 18.5-118 18.5-256l-64,0 q0,134.5 -22,256l-276,0 q-22-122 -22-256l-64,0 q0,138 18.5,256l-50.5,0 l0,64 l 62,0 q 8.5,37.5 16,64l-46,0 l-32,128l 512,0 l-32-128l-46,0 q 7.5-26 16-64l 62,0 zM 132,288l 92,0 l0,64 l-73.5,0 q-9-25.5 -18.5-64zM 361.5,352l-73.5,0 l0-64 l 92,0 q-9.5,38 -18.5,64z
"  />
<glyph unicode="&#xe086;" d="M 288,192q-64,46.5 -64,111.5q0,25 8.5,48.5l-9,9l-133.5-133.5l 103-195.5l 127,0 q 13,0 22.5-9.5t 9.5-22.75t-9.5-22.5t-22.5-9.25l-256,0 q-13,0 -22.5,9.25t-9.5,22.5t 9.5,22.75t 22.5,9.5l 93,0 l-91,171.5l-6.5-6.5q-4.5-5 -11.25-5t-11.5,4.75t-4.75,11.5t 4.5,11.25l 14,14l-16,30.5q-3.5,5.5 -1.75,12t 7.5,10t 12,1.75
t 9.75-7.75l 12-23l 128,127.5q-12,18 -10,40t 17.5,37.5q 18,18 43.5,18t 43.5-18l 23-23q 24,8.5 48.5,8.5q 65.5,0 112-64z"  />
<glyph unicode="&#xe087;" d="M 496.5,76.5l-93-93q-15.5-15.5 -37.25-15.5t-37.25,15.5l-313.5,313.5q-15.5,15.5 -15.5,37.25t 15.5,37.25l 14,14l-23.5,23.5q-6,6 -6,14.5t 6,14.5l 36,36q 6,6 14.5,6t 14.5-6l 23.5-23.5l 14,14q 15.5,15.5 37.25,15.5t 37.25-15.5l 313.5-313.5q 15.5-15.5 15.5-37.25t-15.5-37.25zM 192,360l-24,24l-24-24l-24,24l-24-24
l 24-24l-24-24l 24-24l 24,24l 24-24l 24,24l-24,24zM 468.5,136.5l-186.5,186.5l-125.5-125l 187-186.5q 12-11 28.5-9.5t 28.5,13.5l 64,64q 11.5,12 13.25,28.5t-9.25,28.5zM 320,87.5l 72.5,72.5l 24-24.5l-72.5-72z"  />
<glyph unicode="&#xe088;" d="M 480,160l-43,0 q-20-56.5 -69.5-92.25t-111.5-35.75t-111.5,35.75t-69.5,92.25l 70.5,0 q 16.5-29 46-46.5t 64.5-17.5q 53,0 90.5,37.5t 37.5,90.5l 32,0 l 32,0 l 32,0 q 13.5,0 22.75-9.25t 9.25-22.5t-9.25-22.75t-22.75-9.5zM 320,224q0-26.5 -18.75-45.25t-45.25-18.75t-45.25,18.75t-18.75,45.25t 18.75,45.25t 45.25,18.75
t 45.25-18.75t 18.75-45.25zM 256,352q-53,0 -90.5-37.5t-37.5-90.5l-32,0 l-32,0 l-32,0 q-13,0 -22.5,9.25t-9.5,22.5t 9.5,22.75t 22.5,9.5l 43,0 q 20,56.5 69.5,92.25t 111.5,35.75t 111.5-35.75t 69.5-92.25l-70,0 q-17,29 -46.5,46.5t-64.5,17.5z"  />
<glyph unicode="&#xe089;" d="M 441,196.5l 71-80l-87-23.5l 23-61l-82.5,23l-29.5-87l-79,52.5l-37-52.5l-33.5,64l-90.5,0 l 8,58l-78,0 l 36.5,86.5l-62.5,35l 47.5,38l-47,68l 95.5,23.5l0,74.5 l 43.5-28.5l 22.5,92.5l 80.5-67.5l 74,67.5l 16-57.5l 57.5,32l 14-85l 76,14.5l-34-77l 65.5-46.5zM 288,335.5q0,7 -4.75,11.5t-11.25,4.5l-32,0 
q-6.5,0 -11.25-4.5t-4.75-11.5l0-128 q0-6.5 4.75-11.25t 11.25-4.75l 32,0 q 6.5,0 11.25,4.75t 4.75,11.25l0,128 zM 288,143.5q0,7 -4.75,11.5t-11.25,4.5l-32,0 q-6.5,0 -11.25-4.5t-4.75-11.5l0-31.5 q0-7 4.75-11.5t 11.25-4.5l 32,0 q 6.5,0 11.25,4.5t 4.75,11.5l0,31.5 z"  />
<glyph unicode="&#xe08a;" d="M 480,154.5q-5.5,5.5 -13.5,5.5t-13.5-5.5t-5.5-13.25t 5.5-13.25l 29.5-29l-101.5-101.5l-29,29q-5.5,5.5 -13.25,5.5t-13.5-5.5t-5.75-13t 5.5-13l 9.5-9.5l-23-23l-311.5,311.5l 23,23l 9-9q 5.5-5.5 13.5-5.5t 13.5,5.5t 5.5,13.25t-5.5,13.25l-29.5,29l 101.5,101.5l 29-29q 5.5-5.5 13.25-5.5t 13.25,5.5t 5.5,13.25t-5.5,13.25
l-9,9l 23,23l 311.5-311.5l-23-23zM 412,124.25q-4,3.75 -9.5,3.75t-9-4l-10-9.5l-45,45l 9.5,10q 4,4 4,9.5t-4,9.25t-9.5,3.75t-9-4l-10-9.5l-34,34q 2.5,5.5 2.5,11.5q0,13 -9.25,22.5t-22.75,9.5q-6,0 -11.5-2.5l-34,34l 9.5,10q 4,3.5 4,9t-3.75,9.5t-9.25,4t-9.5-4l-9.5-9.5l-45.5,45l 10,9.5q 3.5,4 3.5,9.5
t-3.75,9.5t-9.25,4t-9.5-4l-37.5-37.5q-4-4 -4-9.5t 4-9.25t 9.5-3.75t 9.5,3.5l 9.5,10l 45-45l-9.5-10q-4-4 -4-9.5t 4-9.25t 9.5-3.75t 9,4l 10,9.5l 34-34q-2.5-5.5 -2.5-11.5q0-13.5 9.5-22.75t 22.5-9.25q 6,0 11.5,2l 34-33.5l-9.5-10q-4-3.5 -4-9t 3.75-9.5t 9.25-4t 9.5,4l 10,9.5l 45-45l-9.5-10
q-4-3.5 -4-9t 3.75-9.5t 9.25-4t 9.5,4l 37.5,37.5q 4,4 4,9.5t-4,9.25z"  />
<glyph unicode="&#xe08b;" d="M 475.5,4.5q-36.5-36.5 -87.75-36.5t-87.75,36.5l-263.5,263.5q-36.5,36.5 -36.5,87.75t 36.5,87.75t 87.75,36.5t 87.75-36.5l 263.5-263.5q 36.5-36.5 36.5-87.75t-36.5-87.75zM 256,352q-13,0 -35,0.5t-30,0.5t-19-2.25t-18.5-7.75q-10.5,14.5 -10.5,35.25t-6,25.75q-12.5,12.5 -30.25,12.5t-30.5-12.75t-12.75-30.5t 12.5-30.25
q 6-5.5 15.5-5.5t 21.75-1.25t 23.25-9.75q-5-7.5 -7.5-18t-2.5-18.75t 0.75-29.75t 0.75-36l 128-132l0,1.75 l0,2.25 q0,53 37.5,90.5t 90.5,37.5l 2.25,0 l 1.75,0 zM 384.25,192q-39.75,0 -68-28.25t-28.25-68t 28.25-67.75t 68-28t 67.75,28t 28,67.75t-28,68t-67.75,28.25z"  />
<glyph unicode="&#xe08c;" d="M 448,352q-26.5,0 -45.25,18.75t-18.75,45.25t 18.75,45.25t 45.25,18.75t 45.25-18.75t 18.75-45.25t-18.75-45.25t-45.25-18.75zM 502,25.5l-47.5-47.5q-9.5-10 -23.5-10t-24,10l-237,237q-10,10 -10,24t 10,23.5l 4.5,4.5l-75,75l-88.5,48q-11,10.5 -11,26t 11,26.5l 26.5,26.5q 11,11 26.5,11t 26-11l 48-88.5
l 75-75l 4.5,4.5q 9.5,10 23.5,10t 24-10l 237-237q 10-10 10-24t-10-23.5z"  />
<glyph unicode="&#xe08d;" d="M 448-32l-384,0 q-13,0 -22.5,9.25t-9.5,22.75l0,447.5 q0,13.5 9.5,22.75t 22.5,9.25l 224,0 l0-176 q0-6.5 4.75-11.25t 11.25-4.75l 176,0 l0-0.5 l0-287 q0-13.5 -9.25-22.75t-22.75-9.25zM 317.5,60.5l-46,46q 16.5,24 16.5,53.5q0,40 -28,68t-67.75,28t-68-28t-28.25-68t 28.25-68t 67.75-28q 29.5,0 53.5,16.5l 46-46
q 2.5-2.5 6.25-2.5t 6.75,2.5l 13,13q 2.5,3 2.5,6.75t-2.5,6.25zM 192,96q-26.5,0 -45.25,18.75t-18.75,45.25t 18.75,45.25t 45.25,18.75t 45.25-18.75t 18.75-45.25t-18.75-45.25t-45.25-18.75zM 320,480q 13,0 22-9l 128.5-128.5q 9.5-9.5 9.5-23l-160,0 l0,160.5 z"  />
<glyph unicode="&#xe08e;" d="M 448,0l-384,0 q-26.5,0 -45.25,18.75t-18.75,45.25l0,192 l0,32 l0,32 q0,13 9.5,22.5t 22.5,9.5l 32,0 l 352,0 l 32,0 l 64,0 l0-63.5 l0-0.5 l0-224 q0-26.5 -18.75-45.25t-45.25-18.75zM 349,92.5l-45.5,46q 16.5,24 16.5,53.5q0,39.5 -28,67.75t-68,28.25t-68-28.25t-28-68t 28-67.75t 68-28q 29.5,0 53.5,16.5l 46-46q 2.5-2.5 6.25-2.5
t 6.75,2.5l 12.5,13q 3,3 3,6.75t-3,6.25zM 224,128q-26.5,0 -45.25,18.75t-18.75,45.25t 18.75,45.25t 45.25,18.75t 45.25-18.75t 18.75-45.25t-18.75-45.25t-45.25-18.75zM 295,394q 3.5,9.5 14,15.75t 22,6.25l 120,0 q 12,0 22.5-6.25t 14.5-15.75l 24-42l-240,0 zM 23,426q 3.5,9.5 14,15.75t 22,6.25l 120,0 q 12,0 22.5-6.25
t 14.5-15.75l 24-42l-240,0 z"  />
<glyph unicode="&#xe08f;" d="M 384,224l-352,0 q-13,0 -22.5,9.5t-9.5,22.75t 9.5,22.5t 22.5,9.25l 6,0 l 90,0 q 13.5,0 22.75,9.5t 9.25,22.75t-9.25,22.5t-22.5,9.25t-22.75,9.5t-9.5,22.75t 9.5,22.5t 22.5,9.25q 3,0 6.5-0.5q 37.5-2.5 63.5-30t 26-65.5q0-15.5 -6-32l 6,0 l 49.5,0 l 110.5,0 q 26.5,0 45.25,18.75t 18.75,45.25t-18.75,45.25t-45.25,18.75t-45.25-18.75
t-18.75-45.25q0-13 -9.25-22.5t-22.5-9.5t-22.75,9.5t-9.5,22.5q0,53 37.5,90.5t 90.5,37.5t 90.5-37.5t 37.5-90.5t-37.5-90.5t-90.5-37.5zM 32,192l 160,0 q 2,0 5.5-0.5q 5.5,0.5 10.5,0.5q 46.5,0 79.25-32.75t 32.75-79.25q0-24 -6.75-43.75t-21.25-35.25t-39.75-24.25t-60.25-8.75q-13.5,0 -22.75,9.5t-9.25,22.75t 9.5,22.5
t 22.5,9.25q 15.5,0 26.75,1.5t 18.25,5.25t 11,7t 5.75,10.25t 2,11.25t 0.25,12.75q0,20 -14,34t-34,14l-101,0 l-75,0 q-13,0 -22.5,9.5t-9.5,22.75t 9.25,22.5t 22.75,9.25z"  />
<glyph unicode="&#xe090;" d="M 288,131l0-99 l 64,0 q 13,0 22.5-9.25t 9.5-22.5t-9.5-22.75t-22.5-9.5l-192,0 q-13.5,0 -22.75,9.5t-9.25,22.75t 9.25,22.5t 22.75,9.25l 64,0 l0,99 q-68.5,13 -114.25,71.75t-45.75,136.25q0,80.5 49,141l 111,0 l 32-96l-96-32l 96-160l-32,128l 96,32l-32,128l 110.5,0 q 49.5-60.5 49.5-141
q0-77.5 -45.75-136.25t-114.25-71.75z"  />
<glyph unicode="&#xe091;" d="M 480-32l-448,0 q-13,0 -22.5,9.25t-9.5,22.75l0,32 q0,13 9.5,22.5t 22.5,9.5l 448,0 q 13.5,0 22.75-9.5t 9.25-22.5l0-32 q0-13.5 -9.25-22.75t-22.75-9.25zM 448,352l0-192 q0-13.5 -9.25-22.75t-22.75-9.25l-32,0 q-13,0 -22.5,9.25t-9.5,22.75l0,192 l-60,0 q-4,4 -4,10t 4,10.5l 98,103q 4,4.5 9.75,4.5t 9.75-4.5l 98.5-103
q 4-4.5 4-10.5t-4-10l-60,0 zM 160,352l0-192 q0-13.5 -9.25-22.75t-22.75-9.25l-32,0 q-13,0 -22.5,9.25t-9.5,22.75l0,192 l-60,0 q-4,4 -4,10t 4,10.5l 98,103q 4.5,4.5 10,4.5t 10-4.5l 98-103q 4-4.5 4-10.5t-4-10l-60,0 z"  />
<glyph unicode="&#xe092;" d="M 496-32l-480,0 q-6.5,0 -11.25,4.75t-4.75,11.25l0,352 q0,6.5 4.75,11.25t 11.25,4.75l 105.5,0 l 122.5,122.5l 0.25,0.5l 0.25,0.5q 5,4.5 11.5,4.5t 11.5-4.5l 0.25-0.5l 0.25-0.5l 122.5-122.5l 105.5,0 q 6.5,0 11.25-4.75t 4.75-11.25l0-352 q0-6.5 -4.75-11.25t-11.25-4.75zM 256,441.5l-89.5-89.5l 179,0 zM 448,288l-384,0 l0-256 l 384,0 l0,256 z"  />
<glyph unicode="&#xe093;" d="M 256,96q-69.5,0 -128.5,10.75t-93.25,29.25t-34.25,40.25t 34.75,40t 93.25,28.75l0,43 q0,53 37.5,90.5t 90.5,37.5t 90.5-37.5t 37.5-90.5l0-43 q 58.5-10.5 93.25-28.75t 34.75-40t-34.25-40.25t-93.25-29.25t-128.5-10.75zM 352,279.5q0,43 -28,73.75t-68,30.75t-68-30.75t-28-73.75l0-34 q 45-21.5 96-21.5
t 96,21.5l0,34 zM 479,105q-7.5-31 -71.5-52t-151.5-21t-151.5,21t-71.5,52q 33.5-19 93-30t 130-11t 130,11t 93,30z"  />
<glyph unicode="&#xe094;" d="M 256-32q-69.5,0 -128.5,34.25t-93.25,93.25t-34.25,128.5q0,52 20.25,99.5t 54.5,81.75t 81.75,54.5t 99.5,20.25t 99.5-20.25t 81.75-54.5t 54.5-81.75t 20.25-99.5t-20.25-99.5t-54.5-81.75t-81.75-54.5t-99.5-20.25zM 116.5,399q 2-3 7.5-7q 5-4 14.75-3.75t 15.25-0.25q 12.5,15.5 26.5,23.5q 8,5 19.75,8
t 19.25,3.5l 7.5,1q-3-3.5 -7.75-9.25t-13.25-21.75t-10-30q 2-2 14.25-5.25t 13.75-5.75l 32,0 q 6.5,0 9-11.5t-1.5-18.5q-2.5-0.5 -12.75-6.5t-25.25-15t-21.5-12.5q-1-2 -1.5-2.5q-1-2 1.75-16.75t-1.25-24.75q-0.5-1 -2.25-0.25t-5.25,2.75t-6,3q-4,2 -8.75,2.5t-4.75,0q-5.5-7.5 -8.5-14q 1.5-8.5 2.5-10.5
q 6.5-13.5 19-25.25t 28.5-13.75q 9-1 18.25,3.75t 16,11.25t 15.75,12t 16.5,5q 18.5,0 30.5-6.25t 12-17.25q0-3 -3-5.5l 0.25-0.25t 0.75-0.25q-1.5-1.5 -4.5-2.5t-5.25-1.5t-6.5-0.75t-5.25-0.25q-6-1 -15-12.25t-16-13.75q-8.5-3 -20.5-12.25t-22.75-15.25t-20.75-4.5q 2.5-3 1-3.5q-0.5,0 2-2.5
q 21.5-16 58.5-15.5q-8.5-5 -24-6.5q 9.5-4 19.5-6.5q 38-2.5 61.5,5.5t 42,28.5q-2-13 -10-24.5q 3.5,1.5 7.5,4q 24.5,25 34.5,46.5t 9,45.5l0,1.25 l0,1.25 q0,4 -0.5,6.5q 7.5-9 10.5-21q 1.5,58.5 -12,82q 19.5-11.5 30.5-32q 0.5,59 -18.5,97q 14.5-10 25.5-23q-9.5,42.5 -40,79.5q-63.5,57.5 -149,57.5q-78,0 -139.5-49z"  />
<glyph unicode="&#xe095;" d="M 509.75,239.75q-6.25-19.75 -24.5-34t-38.25-14.25l-79.5,0 l 32,96l 77,0 q 20,0 29.75-14t 3.5-33.75zM 303.5,287.5l-80,0 l 32,96l 77.5,0 q 19.5,0 29.25-14t 3.75-34t-24.25-34t-38.25-14zM 301,255.5q 19.5,0 29.25-14t 3.75-33.75t-24.25-33.75t-38.25-14l-80,0 l 32,95.5l 77.5,0 zM 112,287.5l-80,0 l 32,96l 77,0 
q 20,0 29.75-14t 3.75-34t-24.5-34t-38-14zM 109,255.5q 20,0 29.75-14t 3.75-33.75t-24.5-33.75t-38-14l-80,0 l 32,95.5l 77,0 zM 269,128q 19.5,0 29.25-14t 3.75-34t-24.25-34t-38.25-14l-80,0 l 32,96l 77.5,0 zM 444.5,160q 20,0 29.75-14.25t 3.75-34t-24.5-33.75t-38-14l-80,0 l 32,96l 77,0 z"  />
<glyph unicode="&#xe096;" d="M 448-32l-384,0 q-26.5,0 -45.25,18.75t-18.75,45.25l0,256 q0,26.5 18.75,45.25t 45.25,18.75l 64,0 l0,48 q0,34 25.5,57t 54.5,23l 96,0 q 29,0 54.5-23t 25.5-57l0-48 l 64,0 q 26.5,0 45.25-18.75t 18.75-45.25l0-256 q0-26.5 -18.75-45.25t-45.25-18.75zM 144,256q-20,0 -34-14t-14-34t 14-34t 34-14t 34,14t 14,34
t-14,34t-34,14zM 320,384q0,13.5 -9.25,22.75t-22.75,9.25l-64,0 q-13,0 -22.5-9.25t-9.5-22.75l0-32 l 128,0 l0,32 zM 416,160l-128-32l 32-96l 128,32z"  />
<glyph unicode="&#xe097;" d="M 484,260.5l 25-64q 6-14.5 0.5-25.5t-19.5-11l-35,0 q 13-14.5 19-32l 22,0 q 6.5,0 11.25-4.75t 4.75-11.25t-4.75-11.25t-11.25-4.75l-16,0 q0-12.5 -4.5-27l 12.5-7q 6-3.5 7.5-10t-1.75-12t-9.5-7.25t-12.25,1.25l-10,6q-4.5-6 -11.5-13l 11.5-19q 3.5-6 1.75-12.25t-7.5-9.5t-12.25-1.75t-10,7.5l-10,17
q-19.5-9 -40-9l0-16 q0-6.5 -4.75-11.25t-11.25-4.75t-11.25,4.75t-4.75,11.25l0,16 l-32,0 l0-16 q0-6.5 -4.75-11.25t-11.25-4.75t-11.25,4.75t-4.75,11.25l0,16 l-32,0 l0-16 q0-6.5 -4.75-11.25t-11.25-4.75t-11.25,4.75t-4.75,11.25l0,16 l-32,0 l0-16 q0-6.5 -4.75-11.25t-11.25-4.75t-11.25,4.75t-4.75,11.25l0,16 l-32,0 
l0-16 q0-6.5 -4.75-11.25t-11.25-4.75t-11.25,4.75t-4.75,11.25l0,22 q-10.5,4 -18.5,9l-21.5-13q-6-3 -12.25-1.25t-9.5,7.25t-1.5,12t 7.25,10l 12.5,7q-9.5,12.5 -14.5,27l-22,0 q-6.5,0 -11.25,4.75t-4.75,11.25t 4.75,11.25t 11.25,4.75l 16,0 q0,12.5 4.5,27l-12.5,7q-5.5,3.5 -7.25,9.75t 1.5,12t 9.5,7.5t 12.25-1.25l 10.5-6
q 2.5,4 6.5,8l-31.5,0 q-13.5,0 -20.75,11t-3.75,25.5l 15.5,64q 2.5,11.5 12.5,19.5t 21.5,8l 71,0 q-13.5,0 -20.75,10.75t-3.75,25.75l 15.5,63.5q 2.5,12 12.5,20t 21.5,8l 139.5,0 q 9.5,0 19-6t 15.5-15l 142.5,80.5q 11.5,6.5 24.5,3.25t 19.75-14.75t 3.25-24.25t-15-19.75l-150.5-85l 4-10.5q 6-14.5 0.5-25.5t-19.5-11l 116,0 q 11.5,0 22.5-8t 15.5-19.5z
M 128.25,128q-13.25,0 -22.75-9.5t-9.5-22.5t 9.5-22.5t 22.75-9.5t 22.5,9.5t 9.25,22.5t-9.25,22.5t-22.5,9.5zM 256.25,128q-13.25,0 -22.75-9.5t-9.5-22.5t 9.5-22.5t 22.75-9.5t 22.5,9.5t 9.25,22.5t-9.25,22.5t-22.5,9.5zM 384.25,128q-13.25,0 -22.75-9.5t-9.5-22.5t 9.5-22.5t 22.75-9.5t 22.5,9.5t 9.25,22.5t-9.25,22.5t-22.5,9.5z"  />
<glyph unicode="&#xe098;" d="M 490.5,267l-274-39.5q-7.5-5 -15-2l-9.5-1.5l0,7 l-128,76.5l0-307.5 q0-13 -9.25-22.5t-22.5-9.5t-22.75,9.5t-9.5,22.5l0,448 q0,13.5 9.5,22.75t 22.75,9.25t 22.5-9.25t 9.25-22.75l0-51.5 l 128,76.5l0,7 l 9.5-1.5q 7.5,3 15-2l 274-39.5q 9-1 15.25-7.75t 6.25-15.75l0-123 q0-9 -6.25-15.75t-15.25-7.75z
M 64,359l0-14 l 128-76l0,166 zM 256,427.5l-32,4.5l0-160 l 32,4.5l0,151 zM 384,410.5l-64,8.5l0-134 l 64,8.5l0,117 zM 480,382q0,7 -4.75,12t-11.75,6l-15.5,2l0-100 l 15.5,2q 7,1 11.75,6t 4.75,12l0,60 z"  />
<glyph unicode="&#xe099;" d="M 480-32q-13.5,0 -22.75,9.5t-9.25,22.5l0,307.5 l-128-76.5l0-7 l-9.5,1.5q-7.5-3 -15,2l-274,39.5q-9,1 -15.25,7.75t-6.25,15.75l0,123 q0,9 6.25,16t 15.25,7.5l 274,39.5q 7.5,5 15,2l 9.5,1.5l0-7 l 128-76.5l0,51.5 q0,13.5 9.25,22.75t 22.5,9.25t 22.75-9.25t 9.5-22.75l0-448 q0-13 -9.25-22.5t-22.75-9.5zM 64,402
l-15.5-2q-7-1 -11.75-6t-4.75-12l0-60 q0-7 4.75-12t 11.75-6l 15.5-2l0,100 zM 192,419l-64-8.5l0-117 l 64-8.5l0,134 zM 288,432l-32-4.5l0-151 l 32-4.5l0,160 zM 320,435l0-166 l 128,76l0,14 z"  />
<glyph unicode="&#xe09a;" d="M 416,352l-32,0 l-32-32l-96,32l-96,0 l 192-64l 32-32l-32-32l-192,64l-32,32l 32,32l-64,0 q-13,0 -22.5,9.5t-9.5,22.5l0,64 q0,13.5 9.5,22.75t 22.5,9.25l 320,0 q 13.5,0 22.75-9.25t 9.25-22.75l0-64 q0-13 -9.25-22.5t-22.75-9.5zM 352,192l 32-32l-32-32l-192,64l-32,32l 32,32zM 352,96
l 32-32l-32-32l-192,64l-32,32l 32,32zM 352,0l-32-32l-64,0 l-96,32l-32,32l 32,32z"  />
<glyph unicode="&#xe09b;" d="M 256-32l-224,128l0,256 l 224,128l 224-128l0-256 zM 256.25,320q-39.75,0 -68-28t-28.25-68t 28-68t 68-28t 68,28t 28,68t-28,68t-67.75,28z"  />
<glyph unicode="&#xe09c;" d="M 510.5-30.5q-8-8 -56.75,26.5t-65.75,51.5l-263.5,263.5q-114.5-27.5 -119.5-22q-5,4.5 -5,11.25t 5,11.75l 163,163q 5,5 11.75,5t 11.25-5q 5.5-5 -22-119.5l 263.5-263.5q 17-17 51.5-65.75t 26.5-56.75z"  />
<glyph unicode="&#xe09d;" d="M 473,246q-25-90 -25-150l0-96 l-32,0 l0,128 q0,63.5 -21,87.5q-11.5-9 -24.5-29.75t-23.75-44t-24.75-49t-27.5-46t-32-33.5t-38.5-13.25q-51,0 -100.75,5t-86.5,16.5t-36.75,26.5q0,13 32.5,39.5t 71,48.5t 56.5,24q 9-9 15.25-14.25t 20.25-11.5t 28.5-6.25q 11.5,0 43.5,41.25t 64.75,94.5t 58.25,107.5
t 25.5,76.75q 40,0 68-32.75t 28-79.25q0-27 -10.5-50.5t-28.5-39.5z"  />
<glyph unicode="&#xe09e;" d="M 499,317l-87-79l 29-29q 7-7 7-17t-7-17l-168.5-168q-7-7 -16.75-7t-16.75,7l-157.5,157.5q-36,10.5 -58.75,40t-22.75,67.5q0,46 32.75,79t 79.25,33q 27,0 50.25-12t 38.75-33l 38,38q 7,7 16.75,7t 16.75-7l 68.5-68l 158,169q 6.5,7 11-7.5q 2-5.5 2-10.5l0-113 
q0-6.5 -3.75-15.25t-9.25-14.75zM 270,346q-6,6 -14.25,6t-13.75-6l-28.5-28q 10.5-22.5 10.5-46q0-18.5 -7-38l 27-28.5l 80.5,86zM 394.5,222l-137.5-124.5q-3.5-3 -10-0.75t-12.5,6.75l-6,4l-65.5,65q-20.5-10.5 -44-12l 123-122.5q 5.5-6 13.75-6t 14.25,6l 140,140q 6,6 6,14t-6,14z"  />
</font>
</defs>
</svg>
